//TJADB Project
TITLE:Cantabile × Passione
TITLEJA:カンタービレ×パッシオーネ
SUBTITLE:--OSTER project feat. Hatsune Miku/#C.O.M.P.A.S.S.
SUBTITLEJA:OSTER project feat.初音ミク 「戦闘摂理解析システム#コンパス」より
BPM:160
WAVE:Cantabile x Passione.ogg
OFFSET:-1.789
DEMOSTART:78.281

COURSE:Edit
LEVEL:9
BALLOON:15
SCOREINIT:370
SCOREDIFF:93
#START
1000002220102022,
1000202220102020,
1000002220020020,
1002002000202020,
#GOGOSTART
1102202011022020,
1102211221212020,
3020221000302210,
0010202222221000,
1010101010101011,
13030040,
#GOGOEND
1110202010102020,
1112221112121212,
1011202210102020,
1110201112221212,
1011201020122010,
2012211221212121,
2011201212112211,
70000008,
11114400,
10200120,
11000120,
10200120,
11000120,
1011200020102000,
1010200020112000,
1011200020102000,
1010200020112000,
1111222211221212,
1122112211112222,
1122112212121122,
1111222211221212,
1122112211112222,
1122112212121122,
10200120,
11000120,
10200120,
11000120,
1011200020102000,
1020200020112000,
1011200020102000,
1020200020112000,
1111222211221212,
1122112211112222,
1122112212121122,
1111222211221212,
1122112211112222,
1122112212121122,
1111222211221212,
1122112212121122,
100000000100000000500000000000000000000008000000,
1222121212221212,
#GOGOSTART
1022201122122102,
1022202211211202,
1022201122122102,
1001001020202020,
1022201221122102,
1022201221212102,
1022101221021050,
000000000000000000000000000000000008000000000000,
1022201122122102,
1022202211211202,
1022201122122100,
3003003000202022,
1101202221012022,
1101202012221212,
1020221000102210,
0010221221012010,
500000000000000000000000000000000008000000100000,
500000000000000000000000000008000000100200200200,
500000000000000008000000100000000100000000100000,
500000000000000000000000000000000008000100100100,
#GOGOEND
1000202210020020,
1010222210020020,
1112221212121111,
2211221122112222,
1020202210020020,
1000200011020020,
1020202210020020,
1100200100200200,
1000202011112222,
1011221122211121,
2002002210020020,
3003003012222222,
1000222210020020,
1212,
12211221,
0010200022022010,
1010220221110201,
1022110222102222,
1022112211222211,
100100200200100100200200100200100200100200102010,
2,
#END

COURSE:Oni
LEVEL:7
BALLOON:12,12,20,12,12,12,12
SCOREINIT:590
SCOREDIFF:135
#START
1000002220000011,
10022122,
1000002020020011,
1001001000000000,
#GOGOSTART
1001001020020020,
1001001000002000,
30030333,
0444,
7008,
7008,
#GOGOEND
11221122,
1020102220111020,
1022201110222010,
2010201110222000,
1011200010222000,
1011200010222000,
1011200010112000,
7,
00803300,
10200120,
10200120,
10200120,
10200120,
1011200010102000,
1011200010202000,
1011200010102000,
1011200010202000,
1000202011102000,
1000201110102020,
1000202011102000,
1000201110102020,
1000202011102000,
1000200011102220,
10200120,
10200120,
10200120,
10200120,
1011200010102000,
1011200010202000,
1011200010102000,
1011200010202000,
1000202011102000,
1000201110102020,
1000202011102000,
1000201110102020,
1000202011102000,
1000200011102220,
3000201110112020,
3000201110112010,
300000000300000000600000000000000000000000000008,
,
#GOGOSTART
1000201110002011,
1000201110202020,
1000201110020020,
1002002010102020,
1000201110020020,
1122,
1000201110020050,
000000000000000000000000000000000008000000000000,
1000201110002011,
1000201110202020,
1000201110020020,
300000000300000000600000000000000008000000000000,
3003003040040040,
3003003000002000,
30030333,
0444,
7008,
7008,
500000000000000008000000100000000100000000100000,
500000000000000000000000000000000008000000000000,
#GOGOEND
1000201110020020,
1010222010020020,
1110222011102220,
1110222011102220,
1000201110020020,
1000200011020020,
1010202010010020,
1100200100200200,
1000202011102220,
1010222011102220,
1002001110020020,
300000000300000000600000000000000008000000000000,
1000201110020020,
1212,
10210121,
0122,
7008,
7008,
500000000000000000000000000000000008000000000000,
500000000000000000000000000000000008000000000000,
3,
#END

COURSE:Hard
LEVEL:4
BALLOON:8,8,15,8,8,9,9,8,8,9,9
SCOREINIT:500
SCOREDIFF:120
#START
1,
1,
1,
1,//4
#GOGOSTART
3,
3,
30030303,
0222,
7008,
7008,//10
#GOGOEND
11221020,
11201120,
11221020,
11201120,
10201120,
10202220,
10201120,
7,
00803300,
1202,
1202,
1202,
1202,
10201120,
10201220,
10201120,
10201220,
10221120,
10201122,
10221120,
10201122,
10221120,
10201122,
1202,
1202,
1202,
1202,
10201120,
10201220,
10201120,
10201220,
10221120,
10201122,
10221120,
10201122,
10221120,
10201122,
30201122,
30221120,
300000000300000000600000000000000000000000000008,
,//51
#GOGOSTART
10221020,
10221020,
10221020,
1001001000002000,
10221020,
1122,
1000202010010050,
000000000000000000000000000000000008000000000000,
10221020,
10221020,
10221020,
300000000300000000600000000000000008000000000000,
10201120,
10221120,
10201120,
10221120,
7008,
7008,
7008,
7008,//71
#GOGOEND
10221120,
10201120,
10211120,
11221020,
10221120,
10201120,
10211120,
11221020,
10221120,
10201120,
10221120,
300000000300000000600000000008000000000000000000,
10221120,
10201120,
10221120,
1122,
7008,
7008,
7008,
7008,
3,
,
,
,
#END

COURSE:Normal
LEVEL:3
BALLOON:5,5,10,5,5,6,6,5,5,6,6
#START
1,
1,
1,
1,//4
#GOGOSTART
3,
3,
5,
000000000000000000000000000000000008000000000000,
7008,
7008,//10
#GOGOEND
1110,
1110,
1110,
1,
12,
12,
12,
7,
00803300,
1002,
1002,
1002,
1002,
1012,
1012,
1012,
1012,
1012,
12,
1012,
12,
1012,
12,
1002,
1002,
1002,
1002,
1012,
1012,
1012,
1012,
1012,
12,
1012,
12,
1012,
12,
3,
3,
300000000300000000600000000000000000000000000008,
,//51
#GOGOSTART
11,
1012,
11,
1,
11,
1122,
1000000010010050,
000000000000000000000000000008000000000000000000,
11,
1012,
11,
300000000300000000600000000008000000000000000000,
11,
1012,
11,
1122,
7008,
7008,
7008,
7008,//71
#GOGOEND
11,
1111,
12,
1111,
1,
1111,
12,
1,
1011,
1011,
12,
300000000300000000600000000008000000000000000000,
1110,
22,
1110,
22,
7008,
7008,
7008,
7008,
3,
,
,
,
#END

COURSE:Easy
LEVEL:2
BALLOON:4,4,10,4,4,5,5,4,4,5,5
#START
1,
1,
1,
1,//4
#GOGOSTART
3,
3,
5,
000000000000000000000000000000000008000000000000,
7008,
7008,//10
#GOGOEND
11,
1,
11,
1,
12,
12,
12,
7,
08,
1,
1,
1,
1,
11,
1,
11,
1,
11,
2,
11,
2,
12,
12,
1,
1,
1,
1,
11,
1,
11,
1,
11,
2,
11,
2,
12,
12,
3,
3,
300000000300000000600000000000000000000000000008,
,//51
#GOGOSTART
11,
1,
11,
1,
11,
1,
10001005,
000000000000000000000000000008000000000000000000,
11,
1,
2,
300000000300000000600000000008000000000000000000,
11,
2,
11,
2,
7008,
7008,
7008,
7008,//71
#GOGOEND
11,
1,
12,
1,
11,
1,
12,
1,
11,
1,
12,
300000000300000000600000000008000000000000000000,
11,
2,
11,
2,
7008,
7008,
7008,
7008,
3,
,
,
,
#END
