//TJADB Project
TITLE:Pan ℣ Gohan! Dai-kessen!
TITLEJA:パン vs ごはん! 大決戦!
SUBTITLE:--Yuuya Kobayashi (IOSYS) feat. miko & Momiji Yamamoto
SUBTITLEJA:コバヤシユウヤ(IOSYS) feat.miko & 山本椛
BPM:240
WAVE:Pan vs Gohan! Dai-kessen!.ogg
OFFSET:-1.122
DEMOSTART:36.111

COURSE:Edit
LEVEL:10
BALLOON:8,16,5,5,5,16,5,5,5,8,45,45
SCOREINIT:400
SCOREDIFF:90
#START
#BARLINEOFF
500008000000000000000000000000000000000000000000,
#BARLINEON
4000122210103000,
112020
#GOGOSTART
00,
#BRANCHSTART p,75,90
#N
1122100011221000,
1122100011221000,
1122100011221000,
7008,
1122100011221000,
1122100011221000,
1122100011221000,
000000300000000300000000600000000008000000000000,
#GOGOEND
0202,
00200200,
20000002,
02020220,
3011101110004011,
1020101110101000,
0040040000500000,
000000000000000000000008000000000000000000000000,
0202,
00200200,
20000002,
02020225,
000000000000000008000000300000000000000000000000,
1011201011203000,
0000102210222010,
2220102211103000,
10002002,
1120,
10102202,
10001107,
,
8111,
500000000000000000000000000000000008000000000000,
3,
#GOGOSTART
12103323,
0030201022101000,
1020100030222030,
300000200200200000200000600000000008000000000000,
12103323,
0030201022101000,
20303202,
03302000,
7000008011102011,
1020101120112000,
7000008011202011,
200200200200100000300000600000000008000000000000,
7000008011102011,
1020101120112000,
2020111020201120,
0022100040000000,
1022102210100010,
01403000,
#GOGOEND
#MEASURE 8/4
#BPMCHANGE 260
#SCROLL 4
6,
#MEASURE 7/4
,
#MEASURE 8/4
,
#MEASURE 4/4
,
#MEASURE 6/4
,
#MEASURE 8/4
,
#MEASURE 7/4
000000000000000000000000000000000000000000000000000000000000000000000000000000008000,
#MEASURE 8/4
000
#GOGOSTART
0000000000000,
#MEASURE 4/4
#SCROLL 0.92
,
#BPMCHANGE 240
#SCROLL 1
,
#GOGOEND
10002002,
1120,
10102202,
10001107,
,
8222,
500000000000000000000000000000000008000000000000,
4,//N77
#GOGOSTART
43,
34,
1020100030222030,
300000200200200000200000600000000008000000000000,
12103323,
0030201022101000,
20303202,
03302000,
7000008011102011,
1020101120112000,
7000008011202011,
200200200200100000300000600000000008000000000000,
7000008011102011,
1020101120112000,
2020111020201120,
0022100040000000,
1122112210100020,
02304000,
1122100011221000,
1122100011221000,
1122100011221000,
7008,
1122102011221020,
1122102010201120,
1122112211221122,
#E
,
,
,
,
,
,
,
,
#GOGOEND
,
,
,
,
,
,
,
,
,
,
,
,
,
,
,
,
,
,
,
,
,
,
,
,
#GOGOSTART
,
,
,
,
,
,
,
,
,
,
,
,
,
,
,
,
,
,
#GOGOEND
#MEASURE 8/4
#BPMCHANGE 260
,
#MEASURE 7/4
,
#MEASURE 8/4
,
#MEASURE 4/4
,
#MEASURE 6/4
,
#MEASURE 8/4
,
#MEASURE 7/4
,
#MEASURE 8/4
000
#GOGOSTART
0000000000000,
#MEASURE 4/4
,
#BPMCHANGE 240
,
#GOGOEND
,
,
,
,
,
,
,
,
#GOGOSTART
,
,
,
,
,
,
,
,
,
,
,
,
,
,
,
,
,
,
,
,
,
,
,
,
,
#M
1202011120201011,
1202011120201010,
1000101010221010,
1020101011012020,
1202011120201011,
1202011120201011,
100200000200000100100000101010100100100000100000,
0030030030000000,
#GOGOEND
1020201021211022,
1000221000221000,
1010221221221040,
04040300,
1020201021211022,
1000221000221000,
1110221012121212,
0011001122102010,
1020201021211022,
1000221000221000,
1010221221221040,
04040300,
1020201021211022,
1000221000221000,
1110221012121212,
0011001122104000,
100000200222,
2020002220202000,
100000200222,
10001103,
0020102210221022,
1022102210221020,
1010101011111010,
3002,
#GOGOSTART
1020102010221020,
1020102212021020,
1020102010221020,
100000100000100000100000101010100100100000100000,
1020102010221020,
1020102212021020,
100000200000100000100000101010100100100000100000,
01101040,
1111102010221020,
1020102212011010,
1222102010221020,
100000100000100000100000101010100100100000100000,
0000300010221020,
1020102212011010,
100000100000100000100000101010100100100000100000,
01101000,
32023201,
01101040,
#GOGOEND
#MEASURE 8/4
#BPMCHANGE 260
#SCROLL 0.5
10101011001000100010001010102222,
#MEASURE 7/4
1010101100100010001000102222,
#MEASURE 8/4
10101011001000100010001010102222,
#MEASURE 4/4
1010101100100010,
#MEASURE 6/4
2,
#MEASURE 8/4
#SCROLL 0.92
10101011001000100010001000102222,
#MEASURE 7/4
1010101100100010001000102222,
#MEASURE 8/4
101010
#GOGOSTART
11001000100010001000102222,
#MEASURE 4/4
1010101100101111,
#BPMCHANGE 240
#SCROLL 1
2100002100004000,
#GOGOEND
100000200222,
2020002220202000,
100000200222,
10001103,
0020102210221022,
1022102220222020,
1010101022222020,
4002,
#GOGOSTART
33,
3,
1020102010221020,
100000100000100000100000101010100100100000100000,
1020102010221020,
1020102212021020,
100000200000100000100000101010100100100000100000,
01101040,
1111102010221020,
1020102212011010,
1222102010221020,
100000100000100000100000101010100100100000100000,
0000300010221020,
1020102212011010,
100000100000100000100000101010100100100000100000,
01101000,
32023201,
01101040,
1202011120201011,
1202011120201010,
1000101010221010,
1020101011012020,
1202011120201011,
1202011120201011,
100200000200000100100000101010100100100000100000,
#BRANCHEND
00200200,
#MEASURE 5/4
2002002020,
#MEASURE 4/4
7,
#MEASURE 5/4
,
#MEASURE 4/4
00000800,
#GOGOEND
3,
#END

COURSE:Oni
LEVEL:10
BALLOON:8,16,5,5,5,16,5,5,5,8,45,45,45
SCOREINIT:420
SCOREDIFF:100
#START
#BARLINEOFF
500008000000000000000000000000000000000000000000,
#BARLINEON
4000122210103000,
112020
#GOGOSTART
00,
#BRANCHSTART r,1,1
#N
1000112210001122,
1000112210001122,
1000112210001122,
7008,
1000112210001122,
1000112210001122,
1000112210001122,
000000400000000400000000600000000008000000000000,
#GOGOEND
100000100100100000100000300000000000100010001000,
22113000,
101010200200100200101010,
12113000,
0202,
00200200,
20022002,
000000200000200000000000500000000000000000000008,
0000300011100050,
000000000008000000400000000000000000100000100000,
1022101040001022,
100000100000000000500000000000000000000008000000,
0202,
00200200,
20022002,
02204000,
10002002,
1120,
10102202,
10001107,
,
8122,
500000000000000000000000000000000008000000000000,
4,//N35
#GOGOSTART
4000400010222010,
2011101040004000,
4000400010222022,
200000100100100000300000600000000008000000000000,
4000400010222010,
2011101040004000,
40101404,
01104000,
7000008022201022,
2010201120112000,
7000008022101022,
100100100100200000300000600000000008000000000000,
7000008022201022,
2010201120112000,
1110202010112010,
0011200040000000,
1011201120200020,
02304000,//N53
#GOGOEND
#MEASURE 8/4
#BPMCHANGE 260
#SCROLL 4
6,
#MEASURE 7/4
,
#MEASURE 8/4
,
#MEASURE 4/4
,
#MEASURE 6/4
,
#MEASURE 8/4
,
#MEASURE 7/4
000000000000000000000000000000000000000000000000000000000000000000000000000000008000,
#MEASURE 8/4
000
#GOGOSTART
0000000000000,
#MEASURE 4/4
#SCROLL 0.92
,
#BPMCHANGE 240
#SCROLL 1
,
#GOGOEND
10002002,
1120,
10102202,
10001107,
,
8222,
500000000000000000000000000000000008000000000000,
4,//N77
#GOGOSTART
43,
34,
4000400010222022,
200000100100100000300000600000000008000000000000,
4000400010222010,
2011101040004000,
40101404,
01104000,
7000008022201022,
2010201120112000,
7000008022101022,
100100100100200000300000600000000008000000000000,
7000008022201022,
2010201120112000,
1110202010112010,
0011200040000000,
1122112210100020,
02304000,
1000112210001122,
1000112210001122,
1000112210001122,
7008,
1020112210201122,
1020112210201120,
1122112211221122,
#E
,
,
,
,
,
,
,
,
#GOGOEND
,
,
,
,
,
,
,
,
,
,
,
,
,
,
,
,
,
,
,
,
,
,
,
,
#GOGOSTART
,
,
,
,
,
,
,
,
,
,
,
,
,
,
,
,
,
,
#GOGOEND
#MEASURE 8/4
#BPMCHANGE 260
,
#MEASURE 7/4
,
#MEASURE 8/4
,
#MEASURE 4/4
,
#MEASURE 6/4
,
#MEASURE 8/4
,
#MEASURE 7/4
,
#MEASURE 8/4
000
#GOGOSTART
0000000000000,
#MEASURE 4/4
,
#BPMCHANGE 240
,
#GOGOEND
,
,
,
,
,
,
,
,
#GOGOSTART
,
,
,
,
,
,
,
,
,
,
,
,
,
,
,
,
,
,
,
,
,
,
,
,
,
#M
1100220011002200,
1100220011002200,
1100220011002200,
500000000000000000000008000000000000000000000000,
1100220011002200,
1100220011002200,
1100220011002200,
000000300000000400000000600000000008000000000000,
#GOGOEND
400000200000200000100100100000200000200020002000,
2020222040000000,
200020002000200000200000200200200000200020002000,
2020222040000000,
3011101110002220,
1110101110101000,
0030030000500000,
000000000000000000000008000000000000000000000000,
0000400022200050,
000008000000200000400000000000000000200000200000,
2222202040001011,
100000100000000000500008000000500008000000100000,
1110101030000000,
1110101012103000,
0000100012101012,
100000100000100200100100100200100000600008000000,
100200100000200000102020,
12102010,
100200100000200200101010,
2000211020200010,
01111111,
1111,
2222111122222000,
3,
#GOGOSTART
2220222011101011,
1011101122202220,
2220222011111011,
1010101022222000,
2220222011101011,
1011101122202220,
2220101111222020,
0011100020000000,
2222202011101011,
1011101122202220,
2222202011111011,
1010101022222000,
2222202011101011,
1011101122202220,
2220101111222020,
0011100020000000,
1122112210100020,
02304000,
#GOGOEND
#MEASURE 8/4
#BPMCHANGE 260
#SCROLL 0.5
2000200020002000100010001000100020002000200020001000100020020020,
#MEASURE 7/4
10001000100010002000200020002000100010002000200010010010,
#MEASURE 8/4
2000200020002000100010001000100020002000200020001000100020020020,
#MEASURE 4/4
11111111,
#MEASURE 6/4
200020200022202020201000,
#MEASURE 8/4
#SCROLL 0.92
2000200020002000100010001001001020002000200020001000100020020020,
#MEASURE 7/4
10001000100010002000200020002000100010002000200010010010,
#MEASURE 8/4
200020002000
#GOGOSTART
2000100010001001001020002000100010002000200010010010,
#MEASURE 4/4
11111111,
#BPMCHANGE 240
#SCROLL 1
10010010,
#GOGOEND
100200100000200000102020,
12102010,
100200100000200200101010,
2000211020200020,
02222222,
2222,
1111222211111000,
4,
#GOGOSTART
43,
34,
2220222011111011,
1010101022222000,
2220222011101011,
1011101122202220,
2220101111222020,
0011100020000000,
2211202011202011,
2011201122102210,
2211202011221022,
1010201022111000,
2211202011202011,
2011201122102210,
2210102211221010,
0011200020000000,
2121212120100020,
01403000,
1100220011002200,
1100220011002200,
1100220011002200,
500000000000000000000008000000000000000000000000,
1110222011102220,
1110222011102220,
1111222211112222,
#BRANCHEND
00200200,
#MEASURE 5/4
2002002020,
#MEASURE 4/4
7,
#MEASURE 5/4
,
#MEASURE 4/4
00000800,
#GOGOEND
3,
#END

COURSE:Hard
LEVEL:7
BALLOON:6,11,100,11,6
SCOREINIT:500
SCOREDIFF:120
#START
#BARLINEOFF
,
#BARLINEON
20101110,
222//3
#GOGOSTART
0,
3434,
3434,
3434,
70000800,
3434,
3434,
3434,
000000100000000200000000600000000008000000000000,
#GOGOEND
200200000200200000202020,
22204000,
222200200222,
22204000,
10111030,
10110110,
05000000,
000000000000000000000008000000000000000000000000,
00202202,
20240022,
22224022,
000000200000000000500000000000000008000000000000,
10113000,
10111030,
00101111,
01111130,
1,
22,
11,
20001107,
,
8111,
500000000000000000000000000000000008000000000000,
3,//35
#GOGOSTART
22221111,
01112220,
22221111,
10012000,
22221111,
01112220,
22101202,
01104000,
2220200010101010,
01112220,
2220200010101010,
10012000,
2220200010101010,
01112220,
22101202,
01104000,
12121201,
02304000,//53
#BPMCHANGE 260
#SCROLL 7.65
#GOGOEND
9,
#MEASURE 11/12
#BARLINEOFF
000000000
#BPMCHANGE 173.33
#SCROLL 11.475
00,
#BPMCHANGE 260
#MEASURE 4/4
#SCROLL 7.65
,
#MEASURE 2/3
000
#BPMCHANGE 173.33
#SCROLL 11.475
0,
#BPMCHANGE 260
#MEASURE 4/4
#SCROLL 7.65
,
#MEASURE 11/12
000000000
#BPMCHANGE 173.33
#SCROLL 11.475
00,
#BPMCHANGE 260
#MEASURE 4/4
#SCROLL 7.65
,
#MEASURE 6/4
,
#MEASURE 11/12
#SCROLL 1
000000000
#BPMCHANGE 173.33
#SCROLL 11.475
00,
#BPMCHANGE 260
#SCROLL 1
000000000
#BPMCHANGE 173.33
#SCROLL 11.475
00,
#BPMCHANGE 260
#MEASURE 4/4
#SCROLL 7.65
9,
#MEASURE 2/3
000000000000000000000000000
#BPMCHANGE 173.33
#SCROLL 11.475
000000008,
#BPMCHANGE 260
#MEASURE 11/12
#SCROLL 7.65
000000000//66
#GOGOSTART
000000000
#BPMCHANGE 173.33
#SCROLL 1.385
0000,
#BPMCHANGE 260
#SCROLL 0.923
000000000
#BPMCHANGE 173.33
#SCROLL 1.385
00,
#BPMCHANGE 260
#MEASURE 4/4
#SCROLL 0.923
,
#BARLINEON
#BPMCHANGE 240
#SCROLL 1
,//69
#GOGOEND
1,
11,
22,
10002207,
,
8222,
500000000000000000000000000000000008000000000000,
4,//77
#GOGOSTART
43,
34,
22221111,
10012000,
22221111,
01112220,
22101202,
01104000,
2220200010101010,
01112220,
2220200010101010,
10012000,
2220200010101010,
01112220,
22101202,
01104000,
12121201,
02304000,
3434,
3434,
3434,
70000800,
3434,
3434,
33443344,
00200200,
#MEASURE 5/4
2002002020,
#MEASURE 4/4
5,
#MEASURE 5/4
,
#MEASURE 4/4
000000000000000000000000000008000000000000000000,//107
#GOGOEND
3,
#END

COURSE:Normal
LEVEL:7
BALLOON:4,6,66,6,4
#START
#BARLINEOFF
,
#BARLINEON
20101110,
222//3
#GOGOSTART
0,
3434,
3434,
3434,
70000800,
3434,
3434,
3434,
000000600000000000000000000008000000000000000000,//11
#GOGOEND
22022020,
22202000,
2222,
22204000,
10111010,
10110110,
05000000,
000000000000000000000008000000000000000000000000,
00202202,
20220022,
20202022,
02040000,
10111000,
10111010,
00101111,
01111030,
2,
22,
11,
20002207,
,
8111,
500000000000000000000000000000000008000000000000,
3,//35
#GOGOSTART
20201101,
01012020,
20201101,
10012000,
20201101,
01012020,
20101202,
01104000,
20201101,
01012020,
20201101,
10012000,
20201101,
01012020,
20101202,
01104000,
20201001,
0340,//53
#BPMCHANGE 260
#SCROLL 7.65
#GOGOEND
9,
#MEASURE 11/12
#BARLINEOFF
000000000
#BPMCHANGE 173.33
#SCROLL 11.475
00,
#BPMCHANGE 260
#MEASURE 4/4
#SCROLL 7.65
,
#MEASURE 2/3
000
#BPMCHANGE 173.33
#SCROLL 11.475
0,
#BPMCHANGE 260
#MEASURE 4/4
#SCROLL 7.65
,
#MEASURE 11/12
000000000
#BPMCHANGE 173.33
#SCROLL 11.475
00,
#BPMCHANGE 260
#MEASURE 4/4
#SCROLL 7.65
,
#MEASURE 6/4
,
#MEASURE 11/12
#SCROLL 1
000000000
#BPMCHANGE 173.33
#SCROLL 11.475
00,
#BPMCHANGE 260
#SCROLL 1
000000000
#BPMCHANGE 173.33
#SCROLL 11.475
00,
#BPMCHANGE 260
#MEASURE 4/4
#SCROLL 7.65
9,
#MEASURE 2/3
000000000000000000000000000
#BPMCHANGE 173.33
#SCROLL 11.475
000000008,
#BPMCHANGE 260
#MEASURE 11/12
#SCROLL 7.65
000000000//66
#GOGOSTART
000000000
#BPMCHANGE 173.33
#SCROLL 1.385
0000,
#BPMCHANGE 260
#SCROLL 0.923
000000000
#BPMCHANGE 173.33
#SCROLL 1.385
00,
#BPMCHANGE 260
#MEASURE 4/4
#SCROLL 0.923
,
#BARLINEON
#BPMCHANGE 240
#SCROLL 1
,//69
#GOGOEND
1,
11,
22,
10001107,
,
8222,
500000000000000000000000000000000008000000000000,
4,//77
#GOGOSTART
43,
34,
20201101,
10012000,
20201101,
01012020,
20101202,
01104000,
20201101,
01012020,
20201101,
10012000,
20201101,
01012020,
20101202,
01104000,
10201201,
02304000,
3434,
3434,
3434,
70000800,
3434,
3434,
3434,
00200200,
#MEASURE 5/4
2002002020,
#MEASURE 4/4
5,
#MEASURE 5/4
,
#MEASURE 4/4
000000000000000000000000000008000000000000000000,//107
#GOGOEND
3,
,
#END

COURSE:Easy
LEVEL:5
BALLOON:3,5,55,5
#START
#BARLINEOFF
,
#BARLINEON
1110,
100//3
#GOGOSTART
0,
3434,
3434,
3434,
70000800,
3434,
3434,
3434,
000000600000000000000000000008000000000000000000,//11
#GOGOEND
22,
2220,
2220,
2240,
11,
10010010,
05000000,
000000000000000000000008000000000000000000000000,
0220,
20020000,
20202002,
00040000,
1110,
1011,
00101001,
0130,
2,
22,
22,
20000007,
,
8011,
500000000000000000000000000000000008000000000000,
3,//35
#GOGOSTART
10101001,
01001000,
1110,
33,
20202002,
02002000,
20202002,
0440,
10101001,
01001000,
1110,
33,
20202002,
02002000,
20202002,
0440,
12,
0340,//53
#BPMCHANGE 260
#SCROLL 7.65
#GOGOEND
9,
#MEASURE 11/12
#BARLINEOFF
000000000
#BPMCHANGE 173.33
#SCROLL 11.475
00,
#BPMCHANGE 260
#MEASURE 4/4
#SCROLL 7.65
,
#MEASURE 2/3
000
#BPMCHANGE 173.33
#SCROLL 11.475
0,
#BPMCHANGE 260
#MEASURE 4/4
#SCROLL 7.65
,
#MEASURE 11/12
000000000
#BPMCHANGE 173.33
#SCROLL 11.475
00,
#BPMCHANGE 260
#MEASURE 4/4
#SCROLL 7.65
,
#MEASURE 6/4
,
#MEASURE 11/12
#SCROLL 1
000000000
#BPMCHANGE 173.33
#SCROLL 11.475
00,
#BPMCHANGE 260
#SCROLL 1
000000000
#BPMCHANGE 173.33
#SCROLL 11.475
00,
#BPMCHANGE 260
#MEASURE 4/4
#SCROLL 7.65
9,
#MEASURE 2/3
000000000000000000000000000
#BPMCHANGE 173.33
#SCROLL 11.475
000000008,
#BPMCHANGE 260
#MEASURE 11/12
#SCROLL 7.65
000000000//N66
#GOGOSTART
000000000
#BPMCHANGE 173.33
#SCROLL 1.385
0000,
#BPMCHANGE 260
#SCROLL 0.923
000000000
#BPMCHANGE 173.33
#SCROLL 1.385
00,
#BPMCHANGE 260
#MEASURE 4/4
#SCROLL 0.923
,
#BARLINEON
#BPMCHANGE 240
#SCROLL 1
,//69
#GOGOEND
1,
11,
11,
10000007,
,
8022,
500000000000000000000000000000000008000000000000,
4,//77
#GOGOSTART
33,
33,
1110,
33,
20202002,
02002000,
20202002,
0440,
10101001,
01001000,
1110,
33,
20202002,
02002000,
20202002,
0440,
12,
0340,
3434,
3434,
3434,
70000800,
3434,
3434,
3434,
00200200,
#MEASURE 5/4
2002002020,
#MEASURE 4/4
5,
#MEASURE 5/4
,
#MEASURE 4/4
000000000000000000000000000008000000000000000000,//107
#GOGOEND
3,
,
#END
