//TJADB Project
TITLE:GO GET ‘EM!
TITLEJA:GO GET'EM!
SUBTITLE:--Satoshi Terashima
SUBTITLEJA:寺島怜志
BPM:146
WAVE:GO GET EM!.ogg
OFFSET:-1.738
DEMOSTART:9.948

COURSE:Edit
LEVEL:9
SCOREINIT:510
SCOREDIFF:135
#START
#GOGOSTART
1201201212110222,
1201201201201020,
1222212222122221,
000000101010100100100200000000202020200001010000,//4
#GOGOEND
1000200011012120,
3011201202112010,
1110201202102012,
1011201202112010,
1110201202112022,
1101201202102010,
4001101202102012,
0001201202102012,
0221201220201022,
1011201202112010,
1110201202101222,
1200400202102010,
1101201202102001,
0020102010201200,
1020102120303040,
0111012202111202,
100100100100200000000000100000101010100200200100,
1001002000102020,
1201002001201020,
1001002001002012,
1020121020121221,
1101102001101101,
1020011011011020,
1021021021201121,
2211200222102110,
1010011020001110,
0011101020101211,
1010021020001110,
1011101020101211,
100100100000200000100100200000200200101010101010,
100000100010200000100200200100200100200200100100,
100200100000200000100200100200100000101000101000,
2010111212121120,
12112112,
100000101010100000200020202020202020100100100100,
100201000101000201000101000201000100200000200000,//40
#GOGOSTART
3001110210201201,
1101110210201200,
1101110210201202,
1201120211111200,
1001110210201202,
1101110210201201,
1212110210201200,
1020120212004040,
3000102012011200,
2010210110201201,
1201120210201201,
1202120210201200,
100000200000100200000200100200100000101010101010,
2010110210201201,
1012102012011020,//55
#GOGOEND
122222100221122222100000,//56
#GOGOSTART
1201201212110222,
1201201201201020,
2121221212212211,//59
#GOGOEND
0300,
#END

COURSE:Oni
LEVEL:9
SCOREINIT:600
SCOREDIFF:160
#START
#GOGOSTART
1112011201112222,
0300300300300040,
2211122121212212,
000200100100100100100500000000000000000000000008,//4
#GOGOEND
,
1000200100002000,
1000200200000000,
1000200100002000,
1000200200001122,
1000200100002000,
1021022000102201,
0111222101111221,
0111221200201020,
1000200100002000,
1000200100001122,
0100200100002000,
1000200200001112,
000000100000202020100200000200200100100200200100,
2211112200304040,
0112011201111222,
0000222211112211,
1201101201101201,
1201101201101202,
1201101201101201,
1201101201101202,
1201101201101201,
1012011012011012,
1201101201101202,
1201101201102010,
22122122,
12212212,
2210202210202210,
2022102022102122,
1021221021221021,
2210212210212210,
2122112122112122,
1121221121221121,
2211212211212211,
2122112122112122,
,//40
#GOGOSTART
1000200100002000,
1000200200001122,
1000200100002000,
1000200100102020,
1000200100002000,
1000200200002201,
0111222101111221,
0111221120201020,
0022000000002201,
0201022122121122,
000100100100200200200200100200100100202000200100,
0202220212022202,
0110220110220120,
1102201102201201,
1022011022012010,//55
#GOGOEND
300000000222200000000000,//56
#GOGOSTART
1112011201112222,
0300300300300040,
2121221112221121,//59
#GOGOEND
0300,
#END

COURSE:Hard
LEVEL:8
BALLOON:15,10,12,15
SCOREINIT:590
SCOREDIFF:160
#START
#GOGOSTART
500000000000000000000000000000000000000000008000,
0300300300300040,
7,
8,//4
#BPMCHANGE 146
#GOGOEND
0000200011022020,
1010200101102000,
1010200101102011,
1010200101102000,
1010200101102011,
1010200101102000,
3000101101102201,
0010200101102001,
0010200110202011,
1010200101102000,
1010200101102011,
0300300101102000,
1010200101102001,
0010201020102200,
2010200110303030,
000600000000000000000000000000000008000000000000,
1110200020201110,
1001002000102000,
1001002001102010,
1001002001102000,
1020111020111000,
1001002001101001,
0020011010010020,
7008,
1110200011101020,
1010001020001110,
0011101020102200,
1010001020001110,
0011101020102200,
100100100000200000100000200000100000500000000008,
0001201011102200,
1110200101102010,
1020111020111020,
11211211,
200000100000100000500000000000000000000008000000,
7008,//40
#GOGOSTART
1000220110102000,
1000220110102200,
1000220110102000,
1000220110102200,
1000220110102000,
1000220110102201,
0010220110102200,
1020220111004040,
3000102011002000,
1000202010102200,
1000220110102200,
1000220110102200,
1010220111002000,
1010220110102200,
1000102012001020,//55
#GOGOEND
1111100011112000,//56
#GOGOSTART
500000000000000000000000000000000000000000008000,
0300300300300040,
7,//59
#GOGOEND
8300,
,
,
#END

COURSE:Normal
LEVEL:7
BALLOON:39,15,22
#START
#GOGOSTART
9,
,
0900,
8,//4
#BPMCHANGE 146
#GOGOEND
,
1000100101002000,
1000100101002000,
1000100101002000,
1000100101002020,
1000100101002000,
3000304000101001,
0000200101002001,
01201121,
1000100101002000,
1000100101002000,
0300300101002000,
1000100101002001,
01212120,
21203333,
000500000000000000000000000000000000000000000008,
00001110,
1001002000102000,
1001002000102010,
1001002000102000,
500000000000000000000000000000000000008000000000,
1001002001001001,
0020010010010020,
7,
8,
11012011,
01102010,
11012011,
01102020,
100000100000200000100000200000500000000008000000,
00212120,
20120120,
12112112,
11211211,
500000000000000000000000000000000000000000000008,
,//40
#GOGOSTART
1000100100102000,
1000100100102000,
1000100100102000,
10201120,
1000100100102000,
1000100100102001,
0000200100102000,
10201022,
1212,
10201120,
1212,
10201120,
1112,
10101120,
10121012,//55
#GOGOEND
3,//56
#GOGOSTART
9,
09,
8,//59
#GOGOEND
0300,
,
,
#END

COURSE:Easy
LEVEL:4
BALLOON:32,4,12,4,18
#START
#GOGOSTART
9,
,
0900,
8,//4
#BPMCHANGE 146
#GOGOEND
,
1101,
1101,
1101,
2202,
1101,
3000303000000005,
000000008000000000000500000000008000000000000700,
08,
1101,
1101,
0300300000001000,
2202,
0222,
10101111,
000500000000000000000000000000000000000000000008,
,
1001001000001000,
1001001000002000,
1001001000001000,
500000000000000000000000000008000000000000000000,
1001001000001001,
0010000010010010,
7,
8,
1021,
0120,
1021,
0120,
1112,
0110,
20020020,
02002002,
00200200,
500000000000000000000000000000000000000000000008,
,//40
#GOGOSTART
1202,
1202,
1202,
1200,
1202,
1000200000000005,
000000008000000000000500000000008000000000000700,
08,
1202,
10101110,
1202,
10101110,
1112,
1112,
10121020,//55
#GOGOEND
3,//56
#GOGOSTART
9,
09,
8,//59
#GOGOEND
0300,
,
,
#END
