//TJADB Project
TITLE:Colorful
TITLEJA:カラフル
SUBTITLE:--Shougo Nomura
SUBTITLEJA:しょご/野村渉悟
BPM:204
WAVE:Colorful.ogg
OFFSET:-1.303
DEMOSTART:65.702

COURSE:Oni
LEVEL:10
BALLOON:11,9
SCOREINIT:500
SCOREDIFF:100
#START
0022102020102010,
2010202012201020,
0022102022102010,
0011102010201020,
0022102020102010,
2010202012201020,
0022102020122010,
0022201012112020,
1222102220102010,
2010201020111010,
000000200200500000000000000000000008000000000000,
0011102210201020,
000000200200100000100000200000100000200000500008,
0011102210112020,
100000100100100000100000100000100000000000500008,
0012101020112010,
2012201000122012,
2010001210212010,
2012201000122012,
2010001120112010,
7008,
2000202022102000,
100000200200200000100000200200100000200000500008,
0012221110101022,
100000200000100000100200000200100000500000000008,
000000100200200010002000200010002000200010002000,
200000100000200000100200200000100200100000500008,
0010122010121020,
100100100000100000100000200200100000200000500008,
0011211222112222,
1012102012102012,
100000100000200200100100200200100100200000101010,
200000101010200000500008000000100100200200100100,
1211221112112211,
100000100100100100100100200200200200200200500008,
000000202020100000200000000000200000000000500008,
000000100100200000100000200000100000100000500008,
000000100200100000100000000000500000000008000000,//38
#MEASURE 7/8
#GOGOSTART
10111220112022,
#MEASURE 5/8
500008000000100020002000101010,
#MEASURE 3/4
100120122122,
#MEASURE 5/8
1020101110,
#MEASURE 7/8
500000000008000000200000000000200000101010,
#MEASURE 5/8
2002101222,
100210201200111,
#MEASURE 3/4
200000000200101010200000000000700000,
#MEASURE 4/4
0000000080300400,
#MEASURE 5/8
600008000000100020002000101010,
#MEASURE 3/4
100120122122,
#MEASURE 5/8
100200100111100,//50
#MEASURE 4/4
#GOGOEND
500000000000000000000000000000000000000000000008,
0011102020201110,
2020201110202020,
111222121212,
1,
,
1010101000300400,
600008000000000000000000000000000000000000000000,//58
#GOGOSTART
1022102210121012,
200000100100100000200200100100200000200000500008,
000000200200100000200000100200100000200000500008,
0011112010201010,
1022102210121012,
200000100000200000500008000000100000200000500008,
000000100000200000100100200000200200200000500008,
000000100000200000100100200000200200101010101010,
2022101020211020,
200010001000202010102020100100200200100100100100,
100000200200100000200200100100200200100000500008,
000000200200100020002000100200200100202020100000,
100100200200100100200200100100200100100200500008,
000020002000100100100100200000100000000000500008,
0012201120102010,
000100100100100200200200100100100100202020100000,
0111122211112221,
100000200100100200100100202020202020100100100000,
000100100100100020002000100010001000202020100000,
000100100100100200200200100100100100202020100000,
000100100100100200200200100100100100202020101010,
200000100100100200200200100100100000100200500008,
000000100200500008000000100200500008000000100200,
5,
000000000000000000000000000000000000000008000000,//83
#GOGOEND
1020220220220221,
#END

COURSE:Hard
LEVEL:8
BALLOON:8,15,15,19,19,27
SCOREINIT:470
SCOREDIFF:130
#START
0022202020202020,
22222111,
0022202020101010,
01221212,
0022202020202020,
22222111,
0020201010222020,
02211030,
1022202020202020,
22221102,
0011102020101010,
01221212,
0022202020101010,
0022202020111000,
1011101020200020,
0011101010004000,
2020101000222020,
1010002220201000,
2020101000222020,
1010002220201000,
7008,
2223,
1011101010102020,
0022202220101000,
10110122,
01102020,
1010202000111010,
0020222020111000,
1110100010102020,
0020200011102000,
2011102011102000,
1010222011101000,
1022202000111010,
2220202010101000,
1110100022202020,
0022202000200030,
0011101010202020,
0022202000300000,//38
#MEASURE 7/8
#GOGOSTART
10001010222010,
#MEASURE 5/8
10220,
#MEASURE 3/4
101121,
#MEASURE 5/8
1000102220,
#MEASURE 7/8
1022012,
#MEASURE 5/8
10220,
7,
#MEASURE 3/4
008,
#MEASURE 4/4
,
#MEASURE 5/8
10220,
#MEASURE 3/4
100010102011,
#MEASURE 5/8
12110,//50
#MEASURE 4/4
#GOGOEND
500000000000000000000000000000000000000000000008,
0022202020202000,
11220110,
222200222200,
1,
,
1010101000300300,
3,//58
#GOGOSTART
1022202020101020,
2010102220201010,
0010102022201010,
0010222010101000,
1022202020101022,
21110112,
0020201010111020,
0020201110001111,
17,
0008,
1022201022201010,
0010100011101000,
1022201022201010,
0000222010100070,
,
00008007,
,
00008009,
,
,
0900,
800000000000000000000000200200200000200000500008,
000000200000500008000000200000500008000000200000,
6,
000000000000000000000000000000000000000008000000,//83
#GOGOEND
0010110110110111,
,
#END

COURSE:Normal
LEVEL:7
BALLOON:4,9,9,11,11,18,5
#START
22202020,
20202222,
,
,
22202020,
20202222,
00101111,
01111040,
11101010,
10101103,
00700008,
,
11101101,
01111000,
22202202,
02222000,
11110011,
11001110,
11110011,
11001110,
,
,
10111002,
02222020,
10110110,
,
11110102,
02222020,
10101111,
,
11011010,
22022000,
10220102,
2110,
20202222,
02220203,
00101111,
01110300,//38
#MEASURE 7/8
#GOGOSTART
1010102,
#MEASURE 5/8
20010,
#MEASURE 3/4
102200,
#MEASURE 5/8
10220,
#MEASURE 7/8
1022010,
#MEASURE 5/8
10220,
7,
#MEASURE 3/4
008,
#MEASURE 4/4
,
#MEASURE 5/8
10220,
#MEASURE 3/4
102201,
#MEASURE 5/8
11010,//50
#MEASURE 4/4
#GOGOEND
500000000000000000000000000000000000000000000008,
0111,
10220220,
1111,
2,
,
1010101000300300,
3,//58
#GOGOSTART
11101010,
10101111,
00202022,
02222000,
11101010,
11110222,
00202022,
02222000,
37,
0008,
00202022,
0222,
11101101,
00102207,
,
00008007,
,
00008009,
,
,
0900,
80001115,
000008000000500000000008000000500000000008000000,
6,
000000000000000000000000000000000000000008000000,//83
#GOGOEND
0070000000000008,
,
#END

COURSE:Easy
LEVEL:4
BALLOON:3,8,7,10,10,11,4
#START
2222,
20202004,
,
,
2222,
20202004,
,
,
1111,
10101003,
00700008,
,
10101003,
,
10101003,
,
3003,
03,
3003,
03,
,
,
10101002,
,
10010010,
,
10101002,
,
10101004,
,
10101002,
,
10010010,
,
10101002,
,
10101004,
,//38
#MEASURE 7/8
#GOGOSTART
1010100,
#MEASURE 5/8
20010,
#MEASURE 3/4
12,
#MEASURE 5/8
10100,
#MEASURE 7/8
2001010,
#MEASURE 5/8
10020,
7,
#MEASURE 3/4
008,
#MEASURE 4/4
,
#MEASURE 5/8
3,
#MEASURE 3/4
12,
#MEASURE 5/8
11000,//50
#MEASURE 4/4
#GOGOEND
500000000000000000000000000000000000000000000008,
,
2,
2,
1,
,
1100,
3,//58
#GOGOSTART
1111,
10101003,
00202004,
0220,
1111,
10101003,
00202004,
0220,
37,
0008,
00202004,
0220,
10101004,
00000007,
,
00008007,
,
00008009,
,
,
0900,
80000005,
000008000000500000000008000000500000000008000000,
6,
000000000000000000000000000000000000000008000000,//83
#GOGOEND
0070000000000008,
,
#END
