//TJADB Project
TITLE:Zassou
TITLEJA:雑草
SUBTITLE:--HIKAKIN & SEIKIN
SUBTITLEJA:HIKAKIN & SEIKIN
BPM:128
WAVE:Zassou.ogg
OFFSET:-2.041
DEMOSTART:92.037

COURSE:Oni
LEVEL:6
BALLOON:7,13,20,7
SCOREINIT:690
SCOREDIFF:185
#START
#MEASURE 2/4
,
#GOGOSTART
#MEASURE 4/4
4000403040040060,
000000000000000008000000000000100000200000200000,
1000100020020020,
500000000000000008000000300000000300000000300000,
4000403040040060,
000000000000000008000000000000100000200000200000,
1000100020020010,
70080000,
#GOGOEND
1000200010011010,
10201222,
1000200010011010,
500000000008000000100100100000200200000000200000,
1000200010011010,
10201222,
1000200010011020,
7008,
1001101020002000,
1001101020002000,
1001101020002000,
1001101020102000,
1002202010201000,
1002202010201000,
1002202010201000,
1002202010201020,
1002102010112000,
1002102010112000,
1002102010112000,
1002102010221020,
1001202011201020,
1001202011201020,
1001202011201020,
500000000000000000000000000000000008000000000000,
1001202010012000,
1001202010012000,
2002101020021010,
2002101020021010,
1110101022202020,
1110101022202020,
7,
8000000012102000,
#GOGOSTART
3000400030012020,
1000100010221020,
1001202010012020,
1000100020220220,
3000400030012020,
1000100010221020,
1001202010012020,
1000100010210210,
3000400040021020,
1000200010112020,
1001202010012020,
1000100010120120,
3000400040021020,
1000100010221020,
1001202010012020,
70080000,
#GOGOEND
1000100010012020,
1000100010221020,
1002102010021020,
500000000008000000200200100000200100000000200000,
1000200010012020,
1000100010221020,
1002102010021020,
1000200011221040,
#END

COURSE:Hard
LEVEL:5
BALLOON:9,9,10,15
SCOREINIT:700
SCOREDIFF:200
#START
#MEASURE 2/4
,
#MEASURE 4/4
#GOGOSTART
3000300030030070,
08,
2000200020020020,
2,
3000300030030070,
08,
2000200020020020,
500000000000000008000000000000000000000000000000,//9
#GOGOEND
1000200010010010,
1212,
1000200010010010,
1212,
1000200010010010,
1212,
1000100020020020,
7008,
1001000020002000,
1001000020002000,
1001000020002000,
1001000020002000,
1002000010101000,
1002000010101000,
1002000010101000,
1002000010101000,
1002000010102000,
1002000010102000,
1002000010102000,
1002000010102000,
1002000010202000,
1002000010202000,
1002000010102020,
500000000000000000000000000000000008000000000000,
1212,
1001101010000000,
1212,
1000200010011010,
11112222,
11112222,
7,
8000000030030030,
#GOGOSTART
4000400030030030,
10101120,
1000100010011010,
1000200030030030,
4000400030030030,
10101120,
1000200010011010,
1000200030030030,
4000400030040040,
10101220,
1000200020022020,
2000200030030030,
4000400030040040,
10101220,
1000200020022020,
500000000000000008000000000000000000000000000000,
#GOGOEND
1000100010011010,
10201122,
1000200020022020,
10201210,
1000100010011010,
10201122,
1000200020022020,
1000100040040040,
,
#BARLINEOFF
,
#END

COURSE:Normal
LEVEL:3
BALLOON:7,7,8,12,7,7,7,7
SCOREINIT:650
SCOREDIFF:185
#START
#MEASURE 2/4
,
#MEASURE 4/4
#GOGOSTART
3000300030030070,
08,
3000300040040040,
600000000000000008000000000000000000000000000000,
4000400040040070,
08,
3000300040040040,
600000000000000008000000000000000000000000000000,//9
#GOGOEND
1202,
1202,
1212,
1110,
1202,
1202,
1212,
7008,
1001000010000000,
1001000010000000,
1001000010000000,
1001000010000000,
2002000020000000,
2002000020000000,
2002000020000000,
2002000020000000,
1001000010001000,
1001000010001000,
1001000010001000,
1001000010001000,
2002000010001000,
2002000010001000,
2002000010001000,
500000000000000000000000000000000008000000000000,
1212,
1210,
1122,
1022,
1111,
11101110,
9009,
8,
#GOGOSTART
3000400030030070,
08,
4000400030030040,
600000000000000008000000000000000000000000000000,
3000400030030070,
08,
4000400030030040,
600000000000000008000000000000000000000000000000,
4000400030040070,
08,
3000400030040040,
600000000000000008000000000000000000000000000000,
4000400030040070,
08,
3000400040040030,
600000000000000008000000000000000000000000000000,
#GOGOEND
1212,
1120,
1212,
1120,
1212,
1112,
1122,
500000000000000000000000000000000000000008000000,
,
#BARLINEOFF
,
#END

COURSE:Easy
LEVEL:3
BALLOON:7,7,5,5,10,7,7,7,7
SCOREINIT:610
SCOREDIFF:163
#START
#MEASURE 2/4
,
#MEASURE 4/4
#GOGOSTART
3370,
08,
3330,
600000000000000008000000000000000000000000000000,
3370,
08,
3330,
600000000000000008000000000000000000000000000000,
#GOGOEND
1102,
1102,
1102,
1102,
1202,
1202,
1202,
7008,
1011,
1011,
1011,
1011,
2022,
2022,
2022,
7008,
1011,
2011,
2011,
2011,
2022,
1022,
1022,
500000000000000000000000000008000000000000000000,
1110,
1120,
1110,
1120,
3333,
3333,
9009,
8,
#GOGOSTART
3370,
08,
3330,
600000000000000008000000000000000000000000000000,
4470,
08,
4440,
600000000000000008000000000000000000000000000000,
3470,
08,
3340,
600000000000000008000000000000000000000000000000,
3470,
08,
3340,
600000000000000008000000000000000000000000000000,
#GOGOEND
1111,
1120,
1111,
1120,
1212,
1120,
1212,
500000000000000000000000000000000000000008000000,
,
#BARLINEOFF
,
#END
