//TJADB Project
TITLE:Ano Hi Deaeta Kiseki
TITLEJA:あの日出会えたキセキ
SUBTITLE:--Yuuma Mizonokuchi feat. Ai Oosera & miko
SUBTITLEJA:溝口ゆうま feat.大瀬良あい miko
BPM:191
WAVE:Ano Hi Deaeta Kiseki.ogg
OFFSET:-5.772
DEMOSTART:58.792

COURSE:Oni
LEVEL:10
BALLOON:12,6,6,6,6
SCOREINIT:370
SCOREDIFF:80
#START
2220,
2220,
11,
1110,
10211021,
01011020,
10211021,//7
#GOGOSTART
4000300022102010,
1010112210101122,
1010112211221110,
2010111220101112,
2010111222122211,
1010112210101122,
1022102210102222,
7008,
2210221030004000,//16
#GOGOEND
10211020,
11211020,
10211020,
11221020,
2011201120111030,
0022102210304000,
21212114,
022210
#SCROLL 2
20,
#SCROLL 1
1002202122021020,
1221101020221022,
1002202122021020,
202020202020200000100000200000200200100000200200,
1022203000101030,
01401140,
41414116,
000000000008000000000000400000000000400000000000,
11211121,
0010201011101110,
#BPMCHANGE 181
102002201201,
102002222102,
102101202101,
100000002000000020001000100100100100100000100100,
#BPMCHANGE 191
1022101022101022,
1010221010021020,
2011201121211120,
0000000011112222,//42
#GOGOSTART
1010112210101122,
1010112211221122,
2010111220101112,
2010111222122211,
1022102210101122,
1022102210101122,
1022101022101030,
03303040,
2010221120102211,
2010221120202011,
2010221120102211,
2010221121112111,
1022102210102211,
1022102210101122,
1022102210112050,
000000000000000000000000000000000008000000000000,//58
#GOGOEND
11001101,
01011040,
11001101,
01011040,
1011101010101000,
1011101010101000,
100100100100100100100100100100100100101010101010,
1122,
1144,
1002201200201120,
1002201200202210,
2022202220221122,
200000200200200000200200100000202020200200100000,
1002201200201120,
1002201200202210,
70087008,
70087008,
2223,
300001222111,
100000000000111111111111,
120202122102,
220102222122,
1011121120221222,
1011121120221222,
1000100011111040,
04404000,//84
#GOGOSTART
1010112210101122,
1010112211221120,
2011201120200030,
000100200002102020111111,
2010111220101122,
2020221120101122,
5,
000000000000000000000000000000000008000000000000,
2011201120112011,
2011201120202011,
2011201120112011,
2011211121112111,
2011102220101122,
2011201120101122,
2111211121112111,
200200100100200200100100202020200000202020202020,//100
#GOGOEND
10211021,
01011020,
12,
3344,
#END

COURSE:Hard
LEVEL:7
BALLOON:10,26,10
SCOREINIT:390
SCOREDIFF:110
#START
2220,
2220,
11,
1110,
10001001,
01011020,
10001001,//7
#GOGOSTART
1133,
11101110,
1010111010101000,
11101110,
2020222020202000,
11101110,
3330,
7008,
2200220020004000,//16
#GOGOEND
10211000,
11211000,
11221000,
1110,
21212111,
01103000,
22222211,
01121020,
1002201010000000,
2202201010000000,
1002201010000000,
2202201010000000,
30010101,
00201120,
21212115,
000000000008000000000000300000000000000000000000,
11101110,
11111110,
#BPMCHANGE 181
101002200101,
101002201101,
100100101002,
002002200000,
#BPMCHANGE 191
30030030,
03003030,
20202204,
0003,//42
#GOGOSTART
11101110,
1010111010101000,
22202220,
2020222020202000,
1000100010002220,
1000100010002220,
10101103,
03303000,
21212121,
21212221,
21212121,
21212220,
1000100010002220,
1000100010002220,
10101015,
000000000000000000000000000000000008000000000000,//58
#GOGOEND
11001101,
01011000,
11001101,
01011000,
1011100010101000,
1011100010101000,
1010101010101110,
2222,
2230,
1001101000101000,
1001101000101000,
2000200020002220,
2220,
1001101000101000,
1001101000101000,
7,
,
8003,
3,
30030000,
200202200202,
200202200000,
1001101020022020,
1001101020022020,
10101101,
01103000,//84
#GOGOSTART
11101110,
1010111010101000,
10101103,
0010101022201110,
11101110,
1010111010101000,
5,
000000000000000000000000000000000008000000000000,
21212121,
21212121,
21212121,
21212220,
1001102220102010,
21212220,
7008,
33,//100
#GOGOEND
10001001,
01011020,
12,
3344,
#END

COURSE:Normal
LEVEL:6
BALLOON:18,6,16
#START
2220,
2220,
11,
1,
7,
0008,
,//7
#GOGOSTART
3330,
10101110,
1110,
10101110,
1110,
10101110,
1110,
7008,
3,//16
#GOGOEND
12,
12,
1110,
2220,
10101001,
0110,
20202004,
,
10011000,
10011000,
10011000,
10011000,
30010101,
01,
20202005,
000000000000000000000000000008000000000000000000,
10101110,
11101000,
#BPMCHANGE 181
1202,
0202,
0202,
0220,
#BPMCHANGE 191
30030030,
03003000,
10101101,
,//42
#GOGOSTART
10101110,
10101110,
10101110,
20202220,
1112,
1112,
10001001,
01101000,
20202022,
20202022,
20202022,
2220,
1112,
1112,
10101005,
000000000000000000000000000008000000000000000000,//58
#GOGOEND
10001001,
01011000,
10001001,
01011000,
1112,
1112,
11101110,
1111,
2220,
10010110,
10010110,
12,
2220,
10010110,
10010110,
7,
,
8003,
3,
30030000,
2222,
2220,
1110,
1110,
10001001,
01101000,//84
#GOGOSTART
10101110,
10101110,
10101103,
,
10101110,
10101110,
5,
000000000000000000000000000000000008000000000000,
11101110,
11111110,
22202220,
22222220,
11101110,
11111110,
1110,
3,//100
#GOGOEND
10001001,
01001000,
11,
3333,
#END

COURSE:Easy
LEVEL:4
BALLOON:14,7,14
#START
2,
2,
11,
1,
7,
0008,
,//7
#GOGOSTART
3330,
11,
1110,
11,
1110,
22,
2220,
500000000000000000000000000008000000000000000000,
3,//16
#GOGOEND
12,
1,
12,
1,
30000001,
0110,
20002002,
,
11,
1110,
11,
1110,
10000003,
,
20202005,
000000000000000000000000000008000000000000000000,
11,
1110,
#BPMCHANGE 181
1,
2,
1,
2,
#BPMCHANGE 191
3003,
,
10101001,
,//42
#GOGOSTART
1111,
1110,
1111,
1110,
1110,
1110,
10101001,
,
2222,
2220,
2222,
2220,
1110,
1110,
10101005,
000000000000000000000000000000000000000008000000,//58
#GOGOEND
7,
8,
,
,
1110,
1110,
1111,
1111,
1,
10010000,
10010000,
2,
,
10010000,
10010000,
7,
,
8,
3,
,
22,
2,
1110,
1110,
10000001,
01101000,//84
#GOGOSTART
1111,
1110,
10101003,
,
1111,
1110,
5,
000000000000000000000000000008000000000000000000,
1111,
1111,
1111,
1110,
1111,
1110,
500000000000000000000000000008000000000000000000,
3,//100
#GOGOEND
,
,
11,
3333,
#END
