//TJADB Project
TITLE:High Spec NEET
TITLEJA:ハイスペックニート
SUBTITLE:--40mP feat. Hatsune Miku/#C.O.M.P.A.S.S.
SUBTITLEJA:40mP feat.初音ミク 「戦闘摂理解析システム#コンパス」より
BPM:220
WAVE:High Spec NEET.ogg
OFFSET:-1.522
DEMOSTART:39.158

COURSE:Oni
LEVEL:8
SCOREINIT:610
SCOREDIFF:170
#START
,
,
0020001020111000,
11221201,
0010201000112020,
11221201,
0010201000112020,
11221201,
0010201000112020,
11221201,
0011202020201010,
1000200011102010,
0010001000112020,
1000200011102010,
0010001000112020,
1000200011102010,
0010001000112010,
0011102011101020,
1110102000201022,
1000200011102010,
0010001000112020,
1000200011102010,
0010001000112020,
1000200011102010,
0010001000112010,
0011102011101020,
1110102010221020,
10211021,
0020102022102000,
10221021,
0020102022102000,
10211021,
0020102022102000,
3000200011201030,
0022102030300030,
#GOGOSTART
0010200011102000,
1210200011202000,
1000200011102000,
1210200011202050,
,
000000000008000000000000000000000000200000000000,
30210201,
0020002000201022,
1000200011102010,
0010201210102000,
1000200011102010,
0010201210102050,
,
000000000000000000000000000000000008000000000000,
40040043,
0030003000302022,
1000200011102010,
0010201210102000,
1000200011102010,
0010201210102050,
,
000000000008000000000000000000000000200000000000,
30210201,
0020002000201022,
1000222010002210,
1000222010002000,
#GOGOEND
34,
,
#GOGOSTART
1110202010200010,
0010201000112010,
1110202010200010,
0010201000112010,
1110202010222010,
0010201000112010,
1110202010222010,
0010201000112010,
#GOGOEND
#END

COURSE:Hard
LEVEL:6
BALLOON:10
SCOREINIT:1070
SCOREDIFF:343
#START
,
,
,
10101201,
01010100,
10101201,
01010100,
10101201,
01010100,
10101201,
01010100,
10201021,
01010100,
10201021,
01010100,
10201021,
01010101,
0210,
1,
10201021,
01010100,
10201021,
01010100,
10201021,
01010101,
0210,
1,
30002001,
02102010,
30002001,
02102010,
10002001,
02102010,
30003003,
00003003,
#GOGOSTART
00201021,
01201020,
10201120,
10201125,
,
000000000008000000000000000000000000200000000000,
30210201,
000000500000000000000000000008000000000000000000,
30201021,
01201020,
10201021,
01201127,
,
00000008,
,
,
30201021,
01201020,
10201120,
10201125,
,
000000000008000000000000000000000000200000000000,
30210201,
000000500000000000000000000008000000000000000000,
10221022,
10221020,
#GOGOEND
33,
,
#GOGOSTART
5,
000000000000000000000000000000000008000000000000,
,
,
30221021,
01010100,
10221021,
01010100,
#GOGOEND
#END

COURSE:Normal
LEVEL:4
BALLOON:16,10
SCOREINIT:1840
SCOREDIFF:1415
#START
,
,
,
11,
,
11,
,
11,
,
11,
,
12,
,
12,
,
12,
,
12,
,
10002001,
,
10002001,
,
10002001,
,
10002001,
,
3,
02,
3,
02,
7,
,
,
80003003,
#GOGOSTART
,
0111,
11,
10000005,
,
000000000008000000000000000000000000000000000000,
3,
,
3,
0111,
11,
10000007,
,
00000008,
,
,
3,
0111,
11,
10000005,
,
000000000008000000000000000000000000000000000000,
3,
,
1111,
1111,
#GOGOEND
33,
,
#GOGOSTART
5,
000000000000000000000000000000000008000000000000,
,
,
30001001,
01010100,
30001001,
01010100,
#GOGOEND
#END

COURSE:Easy
LEVEL:3
BALLOON:16,10
SCOREINIT:1700
SCOREDIFF:2260
#START
,
,
,
1,
,
1,
,
1,
,
1,
,
11,
,
11,
,
11,
,
11,
,
12,
,
12,
,
12,
,
12,
,
3,
,
3,
,
7,
,
,
80003003,
#GOGOSTART
,
,
11,
10000005,
,
000000000008000000000000000000000000000000000000,
3,
,
3,
,
11,
10000007,
,
00000008,
,
,
3,
,
11,
10000005,
,
000000000008000000000000000000000000000000000000,
3,
,
11,
11,
#GOGOEND
33,
,
#GOGOSTART
5,
000000000000000000000000000000000008000000000000,
,
,
3,
00010100,
3,
00010100,
#GOGOEND
#END
