//TJADB Project
TITLE:Love♡Spice♡Like You‽
TITLEJA:ラヴ♡スパイス♡ライクユー!!!
SUBTITLE:--DJ Genki feat. Nanahira & yukacco
SUBTITLEJA:DJ Genki feat.ななひら,yukacco,藍月なくる
BPM:200
WAVE:Love Spice Like You!!!.ogg
OFFSET:-1.304
DEMOSTART:4.891

COURSE:Oni
LEVEL:10
SCOREINIT:330
SCOREDIFF:80
#START
100200100100200000100200100200101010200000000000,
30430304,
044430
#SCROLL 2
40,//3
#SCROLL 1
#GOGOSTART
1000201110102011,
1010201210102022,
1010201110102011,
1010201212112022,
1020102210201022,
1020102210112222,
1011221212112212,
100100100200100200100200100200100200101010200000,//11
#GOGOEND
1,
121122121210
#SCROLL 2
4000,
#SCROLL 1
11221121,
11221222,
11221121,
12221122,
11211222,
11221121,
11221121,
1211221212112222,
1022102010221020,
1020112010201120,
1022102010221020,
1020112010201122,
1011201110112011,
1011201112112210,
30430304,
000400000400301010101010,
100001200100,
100101200101,
100001200100,
102101200111,
100001200100,
100101200101,
100001200100,
100000002000100010001000400000000000100100100100,
1020112010221020,
1120102210201010,
1020112010221020,
1120102210201110,
33034044,
0030401110102010,
0010201020102211,
1003003030004022,//45
#GOGOSTART
1000201110102011,
1010201210102022,
1010201110102011,
1011201210112212,
1000201110102011,
1010201210102022,
1011201210112012,
1121221211212011,
1021021110210211,
1021021112112010,
30430304,
044430
#SCROLL 2
40,//57
#SCROLL 1
#GOGOEND
1,
,
2000200020222020,
100200100100200000100200100200101010200000000000,
#SCROLL 0.75
1000001120101010,
100000100100000100100000200000101010100100100100,
1000001120101010,
100000100100000100100000200000101010200000000000,
000000000111200100100100,
100000100100000100100000200000101010100100100100,
2000
#SCROLL 1
201120102010,
2011211021112111,
2012002211104022,//70
#GOGOSTART
10330303,
03333333,
000000101010100000000000300000300000300000100100,
111111111110
#SCROLL 2
4000,
#SCROLL 1
1000201110102011,
1010201210102022,
1010201110102011,
1010201212112022,
1000201110102011,
1010201210102022,
1010201110102011,
1011201210112212,
1000201110102011,
1010201210102022,
1011201210112012,
1121221211212011,
1021021110210211,
1021021112112010,
30430304,
044430
#SCROLL 2
40,//90
#SCROLL 1
#GOGOEND
121122121210
#SCROLL 2
4000,//91
#SCROLL 1
#GOGOSTART
1000201110102011,
1010201210102022,
1010201110102011,
1010201212112022,
1020102210201022,
1020102210112222,
1011221212112212,
100100100200100200100200100200100200101010200000,//99
#GOGOEND
1,
500000000000000000000000000000000000000000000008,
#END

COURSE:Hard
LEVEL:8
BALLOON:9
SCOREINIT:390
SCOREDIFF:80
#START
,
30430304,
04443040,//3
#GOGOSTART
1000201010102011,
11212121,
0010201010102011,
1010201020222000,
1020102010201011,
1020102010222000,
1010101010101110,
22222240,//11
#GOGOEND
1,
1114,
11221120,
11221220,
11221120,
11221220,
11221122,
11221222,
500000000000000000000000000000000000000008000000,
1114,
12121120,
12121220,
12121120,
12121220,
1010201110102000,
1010201110102000,
30430304,
04043000,
100001200100,
100001200100,
100001200100,
100001200101,
100001200100,
100101200100,
100001200100,
1140,
1000102010201110,
1000102010201110,
1000102010201110,
1000102010201110,
33034044,
03406000,
,
000000000000000000000008000000000000400000000000,//45
#GOGOSTART
1000201010102011,
11212121,
0010201010102011,
11212120,
1000201010102011,
11212121,
05000000,
000000000000000000000000000008000000400000000000,
3003003040040040,
3003003040404040,
30430304,
04443040,//57
#GOGOEND
1,
,
2000200020222020,
7008,
1000001110101010,
11012111,
1000001110101010,
11012120,
0000001110101010,
11012111,
20212120,
2011102011102010,
3003003030004000,//70
#GOGOSTART
30330303,
03333333,
00303333,
03330040,
1000201010102011,
11212121,
05000000,
000000000000000000000000000008000000400000000000,
1000201010102011,
11212121,
0010201010102011,
11212120,
1000201010102011,
11212121,
05000000,
000000000000000000000000000008000000400000000000,
3003003040040040,
3003003040404040,
30430304,
04443040,//90
#GOGOEND
1114,//91
#GOGOSTART
1000201010102011,
11212121,
0010201010102011,
1010201020222000,
1020102010201011,
1020102010222000,
1010101010101110,
22222240,//99
#GOGOEND
1,
500000000000000000000000000000000000000000000008,
,
#END

COURSE:Normal
LEVEL:7
BALLOON:14,24,6,24
#START
,
30330303,
000000600000000000000008000000000000400000000000,//3
#GOGOSTART
10201120,
10221020,
10201120,
10221020,
10201120,
10221020,
11111110,
22222220,//11
#GOGOEND
1,
500000000000000000000000000000000008000000000000,
1212,
10201110,
1212,
10201110,
1212,
10201110,
500000000000000000000000000000000000000008000000,
,
10201120,
10201120,
10201120,
10201120,
7,
0008,
30330303,
03033000,
1021,
1021,
1021,
1021,
1021,
1021,
1021,
14,
10121210,
10121210,
10121210,
10121210,
9,
,
0900,
8,//45
#GOGOSTART
30330301,
01212121,
00121215,
000000000000000000000000000008000000000000000000,
30330301,
01212121,
05000000,
000000000000000000000000000008000000000000000000,
33,
44,
30330303,
000000600000000000000008000000000000400000000000,//57
#GOGOEND
1,
,
2222,
7008,
10002110,
10002111,
10002110,
10002110,
00002110,
10002111,
10102121,
20212121,
600000000000000000000000000000000008000000000000,//70
#GOGOSTART
9,
,
0900,
8,
30330301,
01212121,
05000000,
000000000000000000000000000008000000000000000000,
30330301,
01212121,
00121215,
000000000000000000000000000008000000000000000000,
30330301,
01212121,
05000000,
000000000000000000000000000008000000000000000000,
33,
44,
30330303,
000000600000000000000008000000000000400000000000,//90
#GOGOEND
,//91
#GOGOSTART
10201120,
10221020,
10201120,
10221020,
10201120,
10221020,
11111110,
22222220,//99
#GOGOEND
1,
500000000000000000000000000000000000000000000008,
,
#END

COURSE:Easy
LEVEL:4
BALLOON:7,11,19,10,19,7
#START
,
30030303,
000000600000000000000000000008000000000000000000,//3
#GOGOSTART
1111,
1110,
2222,
2220,
1111,
1111,
500000000000000000000000000000000008000000000000,
7,//11
#GOGOEND
8,
500000000000000000000000000008000000000000000000,
11,
1011,
11,
1011,
11,
1011,
500000000000000000000000000000000000000008000000,
,
11,
1111,
11,
1111,
7,
0008,
30030303,
000000600000000000000000000008000000000000000000,
12,
12,
12,
12,
12,
12,
12,
14,
1111,
1110,
1111,
1110,
9,
,
0900,
8,//45
#GOGOSTART
30030001,
0111,
00202005,
000000000000000000000000000008000000000000000000,
30030001,
0111,
05000000,
000000000000000000000000000008000000000000000000,
33,
44,
30030303,
000000600000000000000000000000000008000000000000,//57
#GOGOEND
,
,
7,
0008,
12,
1011,
12,
1011,
02,
1011,
1111,
1111,
600000000000000000000000000008000000000000000000,//70
#GOGOSTART
9,
,
0900,
8,
30030001,
0111,
05000000,
000000000000000000000000000008000000000000000000,
30030001,
0111,
00202005,
000000000000000000000000000008000000000000000000,
30030001,
0111,
05000000,
000000000000000000000000000008000000000000000000,
33,
44,
30030303,
000000600000000000000000000000000008000000000000,//90
#GOGOEND
,//91
#GOGOSTART
1111,
1110,
2222,
2220,
1111,
1111,
500000000000000000000000000000000008000000000000,
7,//99
#GOGOEND
8,
500000000000000000000000000000000000000000000008,
,
#END
