//TJADB Project
TITLE:Dragoon
TITLEJA:Dragoon
SUBTITLE:--Massive New Krew
SUBTITLEJA:Massive New Krew
BPM:200
WAVE:Dragoon.ogg
OFFSET:-1.415
DEMOSTART:93.798

COURSE:Oni
LEVEL:9
BALLOON:3,3
SCOREINIT:370
SCOREDIFF:90
#START
1,
0001,
1,
1110,
1,
0001,
1,
#BPMCHANGE 203.7
1110,
#BPMCHANGE 200
2011201020002020,
2011201020002020,
2011201020002020,
2011201020001110,
2011201020102010,
2010201020202011,
2222222222222220,
600000000000000000000000000000000000000000000008,
0000
#SCROLL 1.5
0780,
#SCROLL 1
11121212,
1020102010201210,
12121212,
1020102012101111,
1022102210221022,
1022102210221022,
1022102210221022,
1012101200000000,
1210221012102210,
1210221012102210,
1210221012102210,
1210221000000000,
1022101210221012,
1022101210221012,
1022201022221110,
500000000000000000000000000000000000000008000000,
2020222020202220,
2020222022202020,
2020222020202220,
22221020,
1020111010201110,
1020111011101020,
1020111022222222,
1111111030000000,//41
#GOGOSTART
1010221022101210,
100000100100200200100000200200200000100000101010,
1010221022112020,
11213000,
1010221022101210,
1011221022102011,
1010221022112222,
1111221030000000,//49
#GOGOEND
5,
#BARLINEOFF
,
000000000000000000000000000000000000000000000008,
,
#BARLINEON
#MEASURE 8/4
#SCROLL 0.5
1022202010122020,
1022202012122212,
1022202010122010,
2210221000000000,
#MEASURE 4/4
#SCROLL 1
1000222020102000,
1000221020102000,
1000222020102000,
11223344,
1000222020102000,
1000221020102000,
200000200000600008000000200000200000600008000000,
200000000000200000200000600000000008000000000000,
1001201011012011,
1001201011012011,
1001201011012011,
1011201100000000,
100100200111100100200111,
100100200111100100200111,
2211221122112211,
0000
#SCROLL 1.5
0780,//73
#SCROLL 1
#GOGOSTART
1010102210201222,
1000102210201212,
1000102210201222,
100200100200300300300222,
1000102210201222,
1000102210201000,
200000200000600008000000200000200000600008000000,
200000000000200000200000600000000008000000000000,//81
#GOGOEND
2000202020001111,//82
#GOGOSTART
1000102210201212,
1000102210201222,
100200100200300300300222,
1000101210002222,
1001101210202212,
200000200000600008000000200000200000600008000000,
200000202020200000200000600000000008000000000000,//89
#GOGOEND
,//90
#GOGOSTART
300000222100000300300300,
300000222100000300100222,
100000222100000300200222,
10303333,
3030303030301111,
100300300300300300300111,
100300300300300300111111,
10303333,//98
#GOGOEND
000000000000000000500000000000000000000000000008,
#END

COURSE:Hard
LEVEL:7
BALLOON:9,8
SCOREINIT:350
SCOREDIFF:90
#START
1,
0001,
1,
1110,
1,
0001,
1,
1110,
20202022,
2222,
20202022,
2222,
11111111,
11111110,
2220222022202220,
600000000000000000000000000000000000000000000008,
,
11121212,
12121211,
12121212,
12121110,
12121212,
12121212,
12121212,
11110000,
11211121,
11211121,
11211121,
11210000,
12111211,
12111211,
21121121,
70000008,
22202220,
22222220,
22202220,
22221020,
11101110,
11111110,
1010101011101110,
1110111030000000,//41
#GOGOSTART
1010111020001010,
1011101020001011,
1010111020001110,
11223000,
1010111020001010,
1011101020001011,
1010111020001110,
11223000,//49
#GOGOEND
,
#BARLINEOFF
,
,
,
#BARLINEON
#MEASURE 8/4
#SCROLL 0.5
2022202020222000,
2022202022222000,
2022202020222000,
2220222000000000,
#MEASURE 4/4
#SCROLL 1
1000222010002000,
1000221010002000,
1000222010002000,
11223344,
1000222010002000,
1000221010002000,
22302230,
20223000,
1001101010002000,
1001101010002000,
1001101010002000,
1022202000000000,
1000101110001011,
1000101110001000,
2220222022202220,
,//73
#GOGOSTART
1010102210001000,
1000102210001010,
1000102210001000,
12123333,
1000102210001000,
1000102210001000,
22302230,
20223000,//81
#GOGOEND
2000202020001111,//82
#GOGOSTART
1000102210001010,
1000102210001000,
12123333,
1000101010001111,
1001101010001000,
22302230,
2022202030000000,//89
#GOGOEND
,//90
#GOGOSTART
30030333,
30030333,
30030333,
30303333,
33333333,
33333333,
33333333,
30303333,//98
#GOGOEND
00070000,
8,
,
,
,
#END

COURSE:Normal
LEVEL:6
BALLOON:13,5
#START
1,
0001,
1,
1110,
1,
0001,
1,
1110,
2222,
2222,
2222,
2220,
1111,
1111,
11111110,
600000000000000000000000000000000000000000000008,
,
11101010,
10101011,
1111,
10101110,
1212,
1212,
1212,
11110000,
1212,
10201011,
1212,
11110000,
10101110,
11111110,
7,
0008,
22202220,
22202020,
22202220,
22202000,
11101110,
11101010,
11101110,
11103000,//41
#GOGOSTART
10102011,
10102011,
10102011,
11103000,
10102011,
10102011,
10102011,
11103000,//49
#GOGOEND
,
#BARLINEOFF
,
,
,
#BARLINEON
#MEASURE 8/4
#SCROLL 0.5
22202220,
22202020,
22202220,
22220000,
#MEASURE 4/4
#SCROLL 1
10111020,
10111010,
10111020,
11103030,
10111020,
10111010,
11101110,
2230,
10111020,
10111020,
10111020,
10110000,
10112000,
10112000,
1212,
,//73
#GOGOSTART
10112020,
10112020,
10112020,
11103030,
10112020,
10112020,
11201120,
2230,//81
#GOGOEND
10112020,//82
#GOGOSTART
10112020,
10112020,
11103030,
10112020,
10112020,
11201120,
2230,//89
#GOGOEND
,//90
#GOGOSTART
30030330,
30030330,
30030330,
30303330,
11111111,
11111111,
11111110,
30303333,//98
#GOGOEND
00070000,
8,
,
,
,
#END

COURSE:Easy
LEVEL:4
BALLOON:10,4
#START
1,
0001,
1,
1110,
1,
0001,
1,
1110,
22,
22,
22,
2,
11,
11,
1111,
600000000000000000000000000000000000000000000008,
,
11,
1110,
11,
1110,
11,
1110,
11,
1110,
12,
1110,
12,
1110,
12,
1110,
7,
0008,
22,
22,
22,
22,
11,
11,
1011,
13,//41
#GOGOSTART
1110,
1110,
1011,
13,
1110,
1110,
1011,
13,//49
#GOGOEND
,
#BARLINEOFF
,
,
,
#BARLINEON
#MEASURE 8/4
#SCROLL 0.5
22,
2222,
22,
2200,
#MEASURE 4/4
#SCROLL 1
1110,
1110,
1111,
13,
1110,
1110,
1111,
13,
1,
2,
1,
2,
12,
12,
1212,
,//73
#GOGOSTART
1110,
2220,
1111,
13,
1110,
2220,
1212,
13,//81
#GOGOEND
1110,//82
#GOGOSTART
2220,
1111,
13,
1110,
2220,
1212,
13,//89
#GOGOEND
,//90
#GOGOSTART
30030030,
30030030,
30030030,
3330,
30030030,
30030030,
30030030,
3333,//98
#GOGOEND
00070000,
8,
,
,
,
#END
