//TJADB Project
TITLE:Wa Arudo Herite Iji-jo
TITLEJA:和有るど経りて維持・序
SUBTITLE:--Masako Oogami feat. Yako (Danchinomiya)
SUBTITLEJA:feat.団地ノ宮弥子
BPM:125
WAVE:Wa Arudo Herite Iji-jo.ogg
OFFSET:-1.200
DEMOSTART:3.114

COURSE:Oni
LEVEL:8
SCOREINIT:540
SCOREDIFF:140
#START
#BARLINEOFF
0000000000011010,
#BARLINEON
1011101022110110,
1121101011102010,
1021221021210022,
1111101020120210,
1012012012012010,
2022202021012010,
2101001000222222,
2030030030030220,
1021121020110011,
2111100010110120,
1021011021111110,
1022201011120201,
0010211100102100,
1112020200300020,
1201112211010120,
1102201102201202,
0110000022111200,
1011201202011010,
1012012002012020,
1022010102021022,
1101021022112010,
2112112112010020,
0211211201010020,
2112112112010020,
2010122101120221,
0444,
#GOGOSTART
100000000100100000100000000100202020200000100000,
100000000100100000100000000100202020200000100000,
200000000200100000200000000100202020200000100000,
1022102001102222,
100000000200200000100000000100202020200000100000,
100000000200200000100000000100202020200000200000,
100000000100200000100000000100202020200000100000,
500000000000000000000000008000000000200200200200,
#GOGOEND
1021202020121100,
2000002020002011,
1021221221110022,
2211210022110105,
000000000000000000000000000000000008000000000000,
1211010200200010,
1020110110220010,
2212212121020201,
#MEASURE 6/4
222221000030002021012211,
#GOGOSTART
#MEASURE 4/4
100000000100100000200000000100202020100000100000,
100000000100100000200000000100202020100000100000,
1001201002201111,
1001111120202010,
100000200100100000300000000100102020200000100000,
100000200100200000300000000100102020200000100000,
1011202001102010,
1011201012121210,
500000000000000000000000000000000008000000100100,
100000100200200000100000500000000000000008000000,
1021111020202011,
1201111040404030,
3001111010201202,
100200000100200100100100500000000000000008000000,
1121122221112112,
000000000222200000000222,
2102110000000000,
#GOGOEND
#END

COURSE:Hard
LEVEL:7
SCOREINIT:560
SCOREDIFF:120
#START
#BARLINEOFF
0003,
#BARLINEON
1011101010010000,
1011100011102020,
0010101010110020,
1011101020220010,
1002001002001010,
2020200022022000,
1101001000000000,
500000000000000000000000000000000008000000000000,
1010202010110010,
2220200020020020,
1011011011101010,
1040400000000005,
000000000000000000000000000000000008000000000000,
1101010100300000,
1101102011010010,
1100002200001101,
0110000000002000,
1011100202022020,
1002002000000000,
1011010202022000,
1101002000001000,
500000000000000008000000000100000100000000000000,
500000000000000008000000000100000100000000000000,
500000000000000008000000000100000100000000000000,
1000022200200222,
0333,//27
#GOGOSTART
1001101001102000,
1001101001102000,
2002202002202000,
500000000000000000000000000000000008000000000000,
1002201000002010,
1002201000002010,
1001101001102000,
500000000000000000000000008000000000100100100000,//35
#GOGOEND
1010101020202200,
10022020,
0010101010110022,
2020220010220201,
0020220100202000,
1101010100200000,
1020110110110000,
2202202202020202,
#MEASURE 6/4
000011000030000010001010,//44
#MEASURE 4/4
#GOGOSTART
1001102000001110,
1001102000001110,
1002201001102000,
1001101020202000,
3001103000004010,
3001103000004010,
1001101001102000,
3333,
500000000000000000000000000000000008000000100000,
100000000000000000000000500000000000000008000000,
1001101040404011,
1001101040404040,
1001101020202202,
0101101040404000,
1101101101102222,
04,
1101110000000000,
,//62
#BARLINEOFF
#GOGOEND
,
#END

COURSE:Normal
LEVEL:5
BALLOON:7,10
#START
#BARLINEOFF
,
#BARLINEON
10111000,
10111020,
01111000,
10111020,
1000001001001000,
22202020,
1001001000001000,
500000000000000000000000000000000008000000000000,
10111002,
0200200000000000,
10111110,
1000400000000005,
000000000000000000000000000000000008000000000000,
500000000000000000000008000000300000000000000000,
1000000010010010,
500000000000000000000000000000000000000000000008,
,
10100011,
10010000,
10100022,
20020010,
7000000080000005,
000000000000000000000008000000000000000000000000,
7008,
100000000000000000500000000000000000000000000008,
0222,//27
#GOGOSTART
10110110,
10110220,
10110110,
500000000000000000000000000008000000000000000000,
10220110,
10220220,
10110111,
1012,//35
#GOGOEND
11111010,
22222020,
01111001,
1000100020000005,
000000000000000000000000000000000008000000000000,
500000000000000000000008000000300000000000000000,
1000200010010010,
5,
#MEASURE 6/4
800000001011,//44
#MEASURE 4/4
#GOGOSTART
10110110,
10110220,
10110110,
10022220,
10220110,
10220220,
10110220,
1111,
5,
80022003,
30101110,
30102220,
30111110,
40222220,
600000000000000000000000000000000000000000000008,
04,
0300,
,//62
#BARLINEOFF
#GOGOEND
,
#END

COURSE:Easy
LEVEL:3
BALLOON:5,7
#START
#BARLINEOFF
,
#BARLINEON
1110,
1022,
000000500000000000000000000000000008000000000000,
1110,
10010000,
2220,
10010000,
500000000000000000000000000000000008000000000000,
1110,
100000000000100000000000500000000000000000000008,
0111,
0000400000000005,
000000000000000000000000000000000008000000000000,
10000400,
2220,
500000000000000000000000000000000000000000000008,
,
1110,
10010000,
2220,
20020000,
7000000080000005,
000000000000000000000008000000000000000000000000,
7008,
500000000000000000000000000000000000000000000008,
,//27
#GOGOSTART
10010000,
10010000,
10010010,
500000000000000000000000000008000000000000000000,
20020000,
20020000,
1101,
1,//35
#GOGOEND
1110,
2220,
0110,
2000200000000005,
000000000000000000000000000000000008000000000000,
10000400,
2220,
500000000000000000000000000000000000000000000008,
#MEASURE 6/4
000011,//44
#MEASURE 4/4
#GOGOSTART
10010000,
10010000,
10010000,
2011,
10010000,
20020000,
1110,
2222,
500000000000000000000000000000000008000000000000,
12,
32,
3011,
3022,
41,
600000000000000000000000000000000000000000000008,
04,
0300,//61
#GOGOEND
,
#END
