//TJADB Project
TITLE:Heat Haze Shadow 2
TITLEJA:Heat Haze Shadow 2
SUBTITLE:--AJURIKA/TEKKEN 7 FATED RETRIBUTION
SUBTITLEJA:「鉄拳7」より
BPM:174
WAVE:Heat Haze Shadow 2.ogg
OFFSET:-1.802
DEMOSTART:92.969 //shinuchi:
5670/3790/1950/1250

COURSE:Oni
LEVEL:9
BALLOON:55,7
SCOREINIT:420,1300
SCOREDIFF:108
#START
#MEASURE 6/4
3,
#MEASURE 4/4
1011104000400000,
#GOGOSTART
1010201211102020,
1010201011112020,
1010201211102020,
1010201011112020,
1010201211102020,
1010201011112020,
1010201211102020,
1020102210004000, //10
1010201211102020,
1010201012112020,
1010201211102020,
1010201012112020,
1010201211102020,
1010201012112020,
#GOGOEND
1010201211102020,
1020102210102222, //18
1010002211102010,
0010001012102020,
1010002211102010,
0010001012104000,
1010002211102010,
0010001012102020,
1010002211101020,
1020101110004000, //26
1010002211102010,
0010001012102020,
1010002211102010,
0010001012104000,
1010002211102010,
0010001012102020,
1010002211101020,
1020101110104000, //34
11022101,
000100000100222200200200,
1010002211201010,
01011040,
1010202211201020,
1020112012102020,
1010202212102020,
1020102210004000, //42
0700,
0,
0,
0084,
1010202211201020,
1020112012102022,
1010202212102020,
01021040, //50
1020111122221111,
2211221122112020,
1022111122221111,
2211221122112000,
1022111211121112,
1122112120102022,
1122112212101020,
100000200000100000200200700000000000000008000000, //58
1020111122221111,
2211221122112020,
1022111122221111,
2211221122112000,
1022111211121112,
1122112120102022,
1122112212101020,
1020102200000000, //66
#GOGOSTART
1010201211102022,
1010201011112021,
1010201211102022,
1010201011112022,
1010201211102022,
1010201011112021,
1010201211102022,
1020102210004000, //74
1010201211102022,
1010201012112021,
1010201211102022,
1010201012112022,
1010201211102022,
1010201012112021,
1010201211102022,
1020102211200000,
#GOGOEND
0,
0,
0,
0, //86
#END

COURSE:Hard
LEVEL:7
BALLOON:23,46
SCOREINIT:520,2060
SCOREDIFF:138
#START
#MEASURE 6/4
3,
#MEASURE 4/4
11140400,
#GOGOSTART
1010200011102000,
11210122,
1010200011102010,
01201120,
5,
000000000000000000000000000000000008000000000000,
1010100011101020,
02123000, //10
1010200011102000,
11210122,
1010200011102010,
01201120,
7,
0008,
#GOGOEND
1010100011101020,
02021100, //18
1010002011100010,
01011022,
1010001110001010,
01011020,
1010002011101010,
01011022,
11021122,
02123000, //26
1010002011100010,
01011022,
1010001110001010,
01011020,
1010002011101010,
01011022,
11021122,
02123030, //34
11022101,
01011022,
1010002220001010,
01011040,
1010002220001010,
01011022,
11221212,
01123040, //42
0700,
0,
0,
0084,
1010002220001010,
21211022,
11221212,
01021040, //50
2020101011101000,
1010202011102000,
2020101011101000,
1010202011102000,
2020101011101000,
1010202011102000,
1020102011102020,
02123030, //58
2020101011101000,
1010202011102000,
2020101011101000,
1010202011102000,
2020101011101000,
1010202011102000,
1020102011101020,
02020000, //66
#GOGOSTART
1010200011102000,
11210122,
1010200011102010,
01201120,
1010200011102010,
01201122,
1010200011101020,
02123000, //74
1010200011102000,
11210122,
1010200011102010,
01201120,
1010200011102010,
0010200011102020,
1010200011101020,
02121100,
#GOGOEND
0,
0,
0,
0, //86
#END

COURSE:Normal
LEVEL:6
BALLOON:15,44,15
SCOREINIT:800,4070
SCOREDIFF:238
#START
#MEASURE 6/4
3,
#MEASURE 4/4
10110100, //2
#GOGOSTART
1212,
1100,
10101011,
0112,
5,
000000000000000000000000000000000008000000000000,
10101011,
01103000, //10
1212,
1100,
10101011,
0112,
7,
0008,
#GOGOEND
10101011,
01004000, //18
11000101,
01011000,
11000011,
01011000,
11000101,
01011000,
10101011,
01103000, //26
11020101,
01011000,
11020011,
01011000,
11020101,
01011000,
11020011,
01011000, //34
00022000,
00000011,
00022000,
0004,
00022000,
00000011,
500000000000000000000000000000000000000008000000,
02203040, //42
0900,
0,
0,
0000000000000900,
0,
8,
10101011,
01011000, //50
10101011,
01011000,
10101011,
02022000,
10101011,
02022000,
10101011,
02203000, //58
10101011,
01011000,
10101011,
02022000,
10101011,
01011000,
10101011,
02020000, //66
#GOGOSTART
1212,
10110020,
10101011,
0112,
5,
000000000000000000000000000000000008000000000000,
10101011,
01103000, //74
1212,
10110020,
10101011,
0111,
7,
0008,
10101011,
01012000,
#GOGOEND
0,
0,
0,
0, //86
#END

COURSE:Easy
LEVEL:4
BALLOON:12,36,20
SCOREINIT:660,6310
SCOREDIFF:223
#START
#MEASURE 6/4
3,
#MEASURE 4/4
0, //2
#GOGOSTART
1110,
1100,
10001001,
0111,
5,
000000000000000000000000000008000000000000000000,
11,
01003000, //10
2220,
2200,
10001001,
0111,
7,
0008,
#GOGOEND
11,
01004000, //18
10000100,
01001000,
1001,
01001000,
10000100,
01001000,
11,
01003000, //26
10000100,
01001000,
1001,
01001000,
10000100,
01001000,
1001,
01004000, //34
00022000,
00000011,
00022000,
0004,
00022000,
00000011,
500000000000000000000000000000000000000008000000,
0034, //42
0900,
0,
0,
0000000000000900,
0,
8,
11,
01003000, //50
1110,
2220,
1110,
2220,
1122,
1120,
1111,
01003000, //58
1110,
2220,
1110,
2220,
1122,
1120,
1111,
01000000, //66
#GOGOSTART
1110,
1100,
10001001,
0111,
5,
000000000000000000000000000008000000000000000000,
11,
01003000, //74
1110,
1100,
10001001,
0111,
7,
0,
0008,
01003000,
#GOGOEND
0,
0,
0,
0, //86
#END
