//TJADB Project
TITLE:Roki
TITLEJA:ロキ
SUBTITLE:--MikitoP feat. Kagamine Rin
SUBTITLEJA:みきとP feat.鏡音リン
BPM:150
WAVE:Roki.ogg
OFFSET:-1.702
DEMOSTART:52.893

COURSE:Oni
LEVEL:7
BALLOON:5
SCOREINIT:500
SCOREDIFF:110
#START
3333,
7000008011112100,
#GOGOSTART
1021002010002000,
1021002010002000,
32323232,
600000000000000008000000
#LYRIC Saa minmin daha 100100100100100000100000,
#GOGOEND
1020
#LYRIC Chuuya gyakuten 10221020
#LYRIC VOX AC sanjuu watt 1022,
10201022102010
#LYRIC Telecaster seotta sabukaruboy ga 22,
1020120222221002,
#LYRIC Bando nakama ni yahoo 10221022102000
#LYRIC Arubaito wa nekuramode 20,
102210221010
#LYRIC Arubaito wa nekuramode (Mode!) 20
#LYRIC Tai ban ni wa AT-field 20,
10221022101000
#LYRIC “Hitomishiri” sengen de nigeru ki ka boy? 20,
0020102010201022,
12121020,
#LYRIC 1022002010201020,
12020
#LYRIC Yuute obocchan ojouchan okane mo sainou mo 202,
1022002010220020,
1022002010220020,
#LYRIC Namajikka aru dake yakkai de yansu 1022102010220020,
1022002010202020,
#LYRIC Boys be ambitious 1022202210
#LYRIC Hai hai 202010,
#LYRIC Like this old man 10222022102020
#LYRIC Nagai maegami kimi dare no shinja 10,
11221122,
11221210,
#LYRIC Shinja 22
#LYRIC Shinja shinja 02,
#LYRIC Shinja shinja shinja 02
#LYRIC Shinja! 11,
#LYRIC Shinja 22
#LYRIC Shinja shinja 02,
#LYRIC Shinja shinja shinja 0020
#LYRIC Shinja! 1010,
#LYRIC Shinja 5
#LYRIC Shinja shinja 0,
#LYRIC Shinja shinja shinja 0000
#LYRIC Shinja shinja shinja shinja 000
#LYRIC Kanchigai sunna kyouso wa omae da 0,
000000000000000000000000000000000008000000000000,
3330,
#GOGOSTART
#LYRIC Rokiroki no rockin’ rock ‘n’ roll 1022102210002020,
1020100
#LYRIC Kakinarasu electric guitar wa 010222010,
1022102010221020,
#LYRIC Don’t Stop! Don’t Stop! 10201020102010
#LYRIC Saa kimi no subete o 22,
10222022202020
#LYRIC Sarake dashite misero yo 10,
1011101010202020,
#LYRIC Rokiroki no rockin’ rock ‘n’ roll 1022102210002020,
300000000000300000000000600000000000000008000000,
#GOGOEND
#LYRIC 120210120210
#LYRIC Hah? 2000,
#LYRIC 120210120210
#LYRIC Hah? 2000,
#LYRIC 120210120210
#LYRIC Hah? 2020,
#LYRIC 120210120210
#LYRIC Hah? 2222,
#GOGOSTART
#LYRIC 1001201001201020,
1201202222222222,
1001
#LYRIC Haa... 001
#LYRIC 001001001,
001001
#LYRIC Negoto wa nete ie 0010010010,
#MEASURE 2/4
10010010,
#GOGOEND
#MEASURE 4/4
#LYRIC Baby 11
#LYRIC Baby! 22,
#LYRIC Baby 11
#LYRIC Baby! 22,
#LYRIC Baby 11
#LYRIC Baby! 22,
#LYRIC Baby 11
#LYRIC Baby! 22,
#LYRIC 1022102210221022,
10221022102210
#LYRIC Shinun janee zo otagai ni na! 20,
1222122212221000,
000000000000000000000000500000000000000008000000,
#MEASURE 2/4
#LYRIC 11111111,
#GOGOSTART
#MEASURE 4/4
#LYRIC Rokiroki no rockin’ rock ‘n’ roll 1022102210002020,
1020100
#LYRIC Kakinarasu electric guitar wa 010222020,
1022202010222020,
#LYRIC Don’t Stop! Don’t Stop! 10201000102010
#LYRIC Saa kimi no subete o 22,
10201022202020
#LYRIC Sarake dashite misero yo 22,
1022102010202020,
#LYRIC Rokiroki no rockin’ rock ‘n’ roll 1022102210002020,
100000200000500000000000000000000008000000000000,
#LYRIC Rokiroki no 100000100000200000200000500000000000000008000000,
#LYRIC 1021002010201020,
#LYRIC Rockin’ rock ‘n’ roll 100000100000200000200000500000000000000008000000,
#LYRIC 1022102210222220,
1020102010212010,
1022021
#LYRIC Shinun ja nee zo 0,
10221020102120
#LYRIC Shinun ja nee zo! 20,
10221020102220
#LYRIC Shinita ka nee no wa otagaisama! 10,
1022102010212020,
100000000000000000000000500000000000000008000000,
#MEASURE 2/4
11111111,
#MEASURE 4/4
#GOGOEND
#LYRIC 1021002010002000,
1021002010002000,
1000100010010010,
500000000000000008000000100000200000200000200000,
1,
2,
#END

COURSE:Hard
LEVEL:4
BALLOON:24,6,9
SCOREINIT:630
SCOREDIFF:190
#START
3333,
,//2
#GOGOSTART
1022,
1022,
3333,
600000000000000000000008000000000000000000000000,//6
#GOGOEND
1110,
11102000,
1110,
11102000,
1112,
1112,
11101110,
11101020,
1,
00000202,
1212,
1212,
11201120,
11201000,
10201220,
10201220,
11201120,
11201010,
2202,
0211,
2202,
0211,
5,
,
000000000000000000000000000000000008000000000000,
3330,//32
#GOGOSTART
11111022,
1200,
1212,
1122,
10102220,
10102220,
11111022,
300000000000300000000000600000000000000000000008,//40
#GOGOEND
0002,
0002,
0002,
0002,//44
#GOGOSTART
9,
,
,
9,
#MEASURE 2/4
8,//49
#MEASURE 4/4
#GOGOEND
1122,
1122,
1122,
1122,
1111,
1111,
3333,
07,
#MEASURE 2/4
8,//58
#MEASURE 4/4
#GOGOSTART
11111022,
1200,
1212,
1122,
10102220,
10102220,
11111022,
1200,
100000100000200000200000500000000000000000000008,
,
100000100000200000200000500000000000000000000008,
,
11111020,
10221020,
11111020,
10221020,
11111020,
17,
#MEASURE 2/4
08,//77
#MEASURE 4/4
#GOGOEND
1022,
1022,
1000100010010010,
500000000000000000000008000000000000000000000000,
1,
2,
,
#END

COURSE:Normal
LEVEL:3
BALLOON:19,5,8
#START
3333,
,//2
#GOGOSTART
1011,
1011,
3333,
600000000000000000000008000000000000000000000000,//6
#GOGOEND
11,
1110,
11,
1110,
1002,
1002,
11,
1110,
1,
,
11,
12,
1110,
22,
1112,
1112,
11,
1111,
1,
0011,
1,
0011,
5,
,
000000000000000000000000000000000008000000000000,
3330,//32
#GOGOSTART
1110,
1,
12,
1122,
12,
12,
1110,
300000000000300000000000600000000000000000000008,//40
#GOGOEND
0002,
0002,
0002,
0002,//44
#GOGOSTART
9,
,
,
9,
#MEASURE 2/4
8,//49
#MEASURE 4/4
#GOGOEND
1122,
1122,
1122,
1122,
1111,
1111,
3333,
07,
#MEASURE 2/4
8,//58
#MEASURE 4/4
#GOGOSTART
1110,
1,
12,
1122,
12,
12,
1110,
1,
100000000000100000000000500000000000000000000008,
,
100000000000100000000000500000000000000000000008,
,
1110,
1110,
12,
12,
1122,
17,
#MEASURE 2/4
08,//77
#MEASURE 4/4
#GOGOEND
1022,
1022,
500000000000000000000000000000000000000000000008,
,
1,
2,
,
#END

COURSE:Easy
LEVEL:3
BALLOON:16,4,6
#START
3333,
,//2
#GOGOSTART
1,
1,
3333,
600000000000000000000008000000000000000000000000,//6
#GOGOEND
1,
1,
11,
1,
1,
1,
11,
1,
1,
,
11,
1,
11,
1,
1,
1,
12,
12,
1,
0011,
1,
0011,
5,
000000000000000000000000000000000000000000000008,
,
3330,//32
#GOGOSTART
1110,
1,
12,
1,
12,
1,
1110,
300000000000300000000000600000000000000000000008,//40
#GOGOEND
0002,
0002,
0002,
0002,//44
#GOGOSTART
9,
,
,
9,
#MEASURE 2/4
8,//49
#MEASURE 4/4
#GOGOEND
12,
12,
12,
12,
1110,
1110,
3333,
07,
#MEASURE 2/4
8,//58
#MEASURE 4/4
#GOGOSTART
1110,
1,
11,
1,
12,
1,
1110,
1,
100000000000100000000000500000000000000000000008,
,
100000000000100000000000500000000000000000000008,
,
1110,
1110,
12,
12,
12,
17,
#MEASURE 2/4
08,
#MEASURE 4/4
#GOGOEND
1011,
1011,
500000000000000000000000000000000000000000000008,
,
1,
2,
,
#END
