//TJADB Project
TITLE:Connect Colors
TITLEJA:コネクトカラーズ
SUBTITLE:--Ponchi♪ feat. Haxchi
SUBTITLEJA:Ponchi♪ feat.はぁち
BPM:125
WAVE:Connect Colors.ogg
OFFSET:-1.835
DEMOSTART:42.104

COURSE:Oni
LEVEL:10
BALLOON:7
SCOREINIT:300
SCOREDIFF:90
#START
2,
22,
#BPMCHANGE 109
#SCROLL 1.146788990825688
202
#BPMCHANGE 65.35
#SCROLL 1.912777352716144
2,
#BPMCHANGE 280
#SCROLL 1
41121121,
12112121,
21121121,
100200100100201010201010,
21121121,
100200100100200100201010,
2211102210101111,
000400000111,
1,
,
2,
2,
2,
2,
100000100222,
12020200,
30201121,
10210120,
100010200000100100200000,
100010001000200000000000200200100100100000400000,
01401120,
111200111200,
300222222222,
1020202210201000,
30012011,
00102012,
10012011,
00102111,
30114011,
00102012,
1,
2,
30201120,
101010200000100100200000,
3000200010102011,
201010201010200100200100,
41121121,
1020101020222020,
00303303,
3300,
#GOGOSTART
30201121,
01201120,
100010001000200000000000100000100100200000300000,
0011201020102222,
10201120,
1010200011112000,
100020202020200200100300,
000100400000201010101010,
100200111200,
111200111200,
#GOGOEND
30010040,
000000100100200000000000200010002000100020001000,
10210040,
000000100100200000100000200010001000100010001000,
03404404,
0030400022222222,
01
#GOGOSTART
401121,
000100200000101010200000,
100010001000200000000000100100100100200000300000,
0011201020102222,
101010200000100100200100,
0010200011102010,
400000001000200000100000200200100100000000400000,
000100400100202020202020,
101010200000100100200300,
0010200022222222,
00300300,
#MEASURE 5/4
700000000080202,
#MEASURE 4/4
100000200000101010200300,
000100200010200020100010,
#GOGOEND
10012010,
01012101,
11012010,
01012010,
10012010,
0010001020010010,
11012040,
100000200200200000000000200020002000100010001000,
100000202020,
200010001000200000200100,
400000000100201010201010,
200000000220000000200000,
3000200010102010,
000100200000202020202020,
033333,
#MEASURE 8/4
3,
#MEASURE 4/4
2,
,
2,
2,
2,
2,
2,
2,
41121121,
200200100100200100202020,
10210040,
000000100100200000100000200000001000000010000000,
40110040,
000221221222,
#MEASURE 2/4
#BPMCHANGE 70
#SCROLL 2
,
#MEASURE 3/4
1111111111111111
#BPMCHANGE 140
#SCROLL 1
20000000000000000000000000000000,
#GOGOSTART
#MEASURE 4/4
#BPMCHANGE 280
30201121,
01201120,
11201121,
000000100000200020002000200000200200200200200000,
1111200022100040,
0010201020102210,
2211102210101111,
100400400100202020202020,
100200101201,
100200101201,
100201201101,
200000000000200000001000200000001000200200100000,
300200101201,
101201222100,
41121121,
1020101020102210,
41121121,
1040401011111110,
41121121,
1020111020104010,
50000008,
1212121210000000,
#GOGOEND
30012030,
000000200000100010001000200000000000100000100100,
2000001110004000,
0010211120102010,
30012030,
000000200000100010001000200000000000100000100100,
2000001110004000,
0040401022222222,
#GOGOSTART
1000200010102111,
01201020,
100010001000200000000000100100100100200000100000,
0010211022112211,
1111200022100040,
000000100100200000100000400000004000000000004000,
#GOGOEND
00300300,
3,
#END

COURSE:Hard
LEVEL:7
BALLOON:5
SCOREINIT:510
SCOREDIFF:138
#START
2,
2,
#BPMCHANGE 109
#SCROLL 1.14678899083
202
#BPMCHANGE 65.3
#SCROLL 1.91424196018
2,
#BPMCHANGE 280
#SCROLL 1
30010010,
01001000,
10010010,
01001000,
30030030,
03003000,
40040040,
0400,
1,
,
2,
2,
2,
2,
11,
11010100,
3012,
10110110,
1012,
10101103,
0012,
1120,
5,
08,
30002011,
00102011,
10002011,
0120,
10002011,
00102011,
1,
2,
30201120,
1120,
30201120,
1120,
30010010,
01002222,
00303303,
3300,
#GOGOSTART
30201021,
01201020,
10201022,
0222,
10201120,
10201120,
10202011,
02201000,
1212,
1122,
#GOGOEND
30030030,
0222,
30030030,
0222,
03303303,
04406000,
80
#GOGOSTART
401021,
01201020,
10201022,
0222,
10201021,
01201020,
10210104,
0220,
10201021,
01202222,
00300300,
#MEASURE 5/4
70008,
#MEASURE 4/4
10201021,
0220,
#GOGOEND
1021,
02,
1021,
0021,
1021,
02,
1024,
0220,
300222,
22,
30010010,
20020020,
30201021,
01204000,
06000000,
#MEASURE 8/4
08000000,
#MEASURE 4/4
2,
,
2,
,
2,
2,
2,
2,
10010010,
01001000,
30030030,
0220,
30030030,
0222,
#MEASURE 2/4
#SCROLL 2
#BPMCHANGE 70
,
#MEASURE 3/4
0
#BPMCHANGE 140
#SCROLL 1
40,
#GOGOSTART
#MEASURE 4/4
#BPMCHANGE 280
30201021,
01201020,
10201021,
01202000,
10401104,
0222,
11011011,
02202000,
3212,
3212,
6,
8022,
3212,
3340,
30110110,
11011010,
30110110,
11011000,
30110110,
11011010,
50000008,
000
#GOGOEND
0,
30011030,
01102010,
40022040,
02201020,
30011030,
01102010,
40022040,
02201020,
#GOGOSTART
30201021,
01201020,
10201021,
01202222,
00301101,
01105008,
#GOGOEND
00300300,
3,
#END

COURSE:Normal
LEVEL:6
BALLOON:27,27,7,7,7
SCOREINIT:990
SCOREDIFF:305
#START
2,
2,
#BPMCHANGE 109
#SCROLL 1.14678899083
202
#BPMCHANGE 65.3
#SCROLL 1.91424196018
0,
#BPMCHANGE 280
#SCROLL 1
9,
,
,
,
8,
,
,
,
1,
,
1,
,
1,
1,
11,
1,
31,
1110,
11,
10001003,
,
11,
5,
08,
12,
02,
12,
02,
12,
02,
1,
2,
11,
1110,
11,
1110,
5,
08,
6,
0800,
#GOGOSTART
11,
1110,
10001003,
02,
11,
1110,
10001003,
,
11,
1110,
#GOGOEND
30030030,
,
30030030,
,
06000000,
0800,
1
#GOGOSTART
010,
1110,
10001004,
02,
11,
1110,
10001004,
,
11,
1110,
0600,
#MEASURE 5/4
00080,
#MEASURE 4/4
11,
1110,
#GOGOEND
12,
02,
12,
02,
12,
02,
12,
02,
1,
1,
3,
3,
5,
0800,
6,
#MEASURE 8/4
08000000,
#MEASURE 4/4
2,
,
2,
,
2,
2,
2,
2,
11,
1110,
30030030,
,
30030030,
,
#MEASURE 2/4
#BPMCHANGE 70
#SCROLL 2
,
#MEASURE 3/4
0
#BPMCHANGE 140
#SCROLL 1
40,
#GOGOSTART
#MEASURE 4/4
#BPMCHANGE 280
9,
,
,
,
8,
,
,
,
1110,
1110,
6,
0800,
11,
1110,
7,
00080000,
7,
00080000,
7,
00080000,
50000008,
000
#GOGOEND
0,
3003,
03,
4004,
04,
3003,
03,
4004,
04,
#GOGOSTART
11,
1110,
22,
2220,
0500,
00000008,
#GOGOEND
00300300,
3,
#END

COURSE:Easy
LEVEL:4
BALLOON:22,3,22,6,6,6
SCOREINIT:770
SCOREDIFF:198
#START
2,
2,
#BPMCHANGE 109
#SCROLL 1.14678899083
202
#BPMCHANGE 65.3
#SCROLL 1.91424196018
0,
#BPMCHANGE 280
#SCROLL 1
9,
,
,
,
8,
,
,
,
1,
,
1,
,
1,
1,
11,
1,
3,
11,
1,
70000008,
,
1,
5,
8,
2,
2,
2,
,
2,
2,
2,
,
1,
11,
1,
11,
5,
08,
6,
0800,
#GOGOSTART
11,
11,
10000003,
,
11,
11,
10000003,
,
11,
11,
#GOGOEND
3003,
,
3003,
,
06000000,
0800,
1
#GOGOSTART
010,
11,
10000004,
,
11,
11,
10000004,
,
11,
11,
0600,
#MEASURE 5/4
00080,
#MEASURE 4/4
1,
11,
#GOGOEND
2,
,
2,
,
2,
,
2,
,
1,
1,
3,
3,
5,
0800,
6,
#MEASURE 8/4
08000000,
#MEASURE 4/4
2,
,
2,
,
2,
2,
2,
2,
11,
11,
3003,
,
3003,
,
#MEASURE 2/4
#BPMCHANGE 70
#SCROLL 2
,
#MEASURE 3/4
0
#BPMCHANGE 140
#SCROLL 1
40,
#GOGOSTART
#MEASURE 4/4
#BPMCHANGE 280
9,
,
,
,
8,
,
,
,
11,
11,
6,
0800,
11,
11,
7,
00080000,
7,
00080000,
7,
00080000,
50000008,
000
#GOGOEND
0,
3003,
,
4004,
,
3003,
,
4004,
,
#GOGOSTART
11,
11,
22,
22,
0500,
00000008,
#GOGOEND
00300300,
3,
#END
