//TJADB Project
TITLE:UFO Swingin’
TITLEJA:UFO Swingin'
SUBTITLE:--Shibagaki feat. A. Dokuga
SUBTITLEJA:シバガキ feat. A.Dokuga
BPM:248
WAVE:UFO Swingin.ogg
OFFSET:-1.091
DEMOSTART:16.568

COURSE:Oni
LEVEL:10
BALLOON:2,5,5,5,5,2,2,2,2,4,4,4,4,4
SCOREINIT:430
SCOREDIFF:95
#START
#GOGOSTART
#BARLINEOFF
,
,
,
,
,
,
#BARLINEON
#GOGOEND
200200200200100100100100100100100100200200200200,
#MEASURE 13/16
100010001000100010001000
#BPMCHANGE 62
#SCROLL 0.5
400
#BPMCHANGE 248
#SCROLL 1
100100100100,
#GOGOSTART
#MEASURE 4/4
200000000000100100100100200000000000100100100100,
200000002000000000003000000000000000100100100100,
200000000000100100100100200000000000100100100100,
200000002000000000003000000000000000200200200200,
100000000000200020002000100000000000200020002000,
100000001000000000004000000000000000100000002020,
#GOGOEND
100000001000000000003000000000200200100000001000,
000030000000000000001000000000200200700000800000,
#GOGOSTART
100000000000100020002000100000000000100010001000,
100020002000100020002000100010001000200020001000,
100000004000000000000000300000000000400000000000,
600000000008000000004000000000000000100010001000,
100000000000100020002000100000000000100010001000,
100020002000100020002000100020002000200020001000,
100000004000000000000000300000000000400000000000,
600000000008000000004000000000000000100010001000,
100000000000100020002000100000000000100010001000,
100020002000100020002000100010001000200020001000,
100000004000000000000000300000000000400000000000,
600000000008000000004000000000000000100010001000,
100000002000000000001000000000002000000000001010,
#GOGOEND
#MEASURE 1/4
200000000000,
#SCROLL 2
000000000000,
000000000000,
#MEASURE 5/4
000000
#SCROLL 1
000000
#GOGOSTART
000000005000000000080000200000000000100000200200,
#MEASURE 4/4
100000100100100000004000000000000000100100100100,
#GOGOEND
200000000000200200200200100000000000100100100100,
200200200200200200200200100100100100100100100100,
200000003000000000000000300000000000300000000000,
600000000008000000003000000000000000100100100100,
100000000000100100100100200000000000200200200200,
100100100100200200200200100100100100100100100100,
200000003000000000000000300000000000300000000000,
600000000008000000003000000000001000200000002000,
#GOGOSTART
700000000000800000004000000000001000200000002000,
700000000000800000004000000000001000200000002000,
700000000000800000004000000000001000200000002000,
700000000000800000004000000000001000200000002000,
#GOGOEND
100100100100200200200200200200100100100100100100,
200200200200100100100100100100200200100100100100,
#GOGOSTART
000000003000000000000000300000000000300000000000,
#GOGOEND
600000000008000000003000000000000000000000000000,
#GOGOSTART
#MEASURE 13/4
200000001000100010001000100010001000100010001000
100000200000100000200000100000100000200000100100
100100200000100100100000100000100100200000100000
200000100000,
100000200000100100100100200000100100100100200000
100100100100100010001000200010001000200000100100
100100200000100100100100200000100100100100200000
100100100100,
#MEASURE 4/4
200000100100100020001000200010001000100020001000,
200010001000100000200000100100100100200000100100,
100100200000100100100100200010001000100000200000,
100010001000200200200200200010001000100100100100,
#GOGOEND
200000000000100000002000000000000000100000000000,
200000001000000000000000200000000000100000000000,
100000004000000000000000300000000000400000000000,
#MEASURE 12/4
600000000008
#BPMCHANGE 274
#SCROLL 0.91
000000004000000000000000000000000000
000000000000000000000000000000000000000000000000
000000000000000000000000000000000000100100100100,
#MEASURE 4/4
200000
#SCROLL 1.36
007000000800000000
#SCROLL 0.91
200000
#SCROLL 1.4
007000000800000000,
#SCROLL 0.91
200000
#SCROLL 1.45
007000000800000000
#SCROLL 0.91
200000
#SCROLL 1.5
007000000800000000,
#SCROLL 0.91
#GOGOSTART
100000000000100020002000100000000000100010001000,
100020002000100020002000100010001000200000001000,
100000004000000000000000300000000000400000000000,
600000000008000000004000000000000000300000000000,
#GOGOEND
200020002000100010001000200020002000100010001000,
200020002000100010001000200020002000100010001000,
200200200000200000100100100000100000200200200000,
200000100100100010001000400000000000100010001000,
#GOGOSTART
100000000000100020002000100000000000100010001000,
100020002000100020002000100010001000200020001000,
100000004000000000000000300000000000400000000000,
600000000008000000040000000000000000300000000000,
#GOGOEND
200200200200000000100100100100000000100100100100,
000000200200200200000000100100100100000000100100,
100100000000100100100100000000200200200200000000,
400000000400000000400000400000000000100100100100,
200000000000200200200200100000000000100100100100,
200020002000200020002000100010001000100010001000,
200000003000000000000000300000000000300000000000,
600000000008000000003000000000000000100100100100,
100000000000100100100100200000000000200200200200,
100100100100200200200200100100200200100010002000,
200000100000100000400000000000100000100000200000,
200000300000000000200000200000100000100000400000,
000000100000400000000000300000000000400000000000,
#GOGOSTART
700000000000800000004000000000001000200000002000,
700000000000800000004000000000001000200000002000,
700000000000800000004000000000001000200000002000,
700000000000800000004000000000001000200000002000,
#GOGOEND
100100100100100100100100200200200200200200200200,
100100100100100100100100200200200200200200200200,
#GOGOSTART
000000003000000000000000300000000000300000000000,
#BARLINEOFF
#BPMCHANGE 68.5
#SCROLL 16
#GOGOEND
680000000000000000000000000000000000000000000000,
#SCROLL 0.5
#MEASURE 1/16
300,
#BPMCHANGE 274
#SCROLL 1
#GOGOSTART
#MEASURE 3/4
700000000000000080000000200020002000,
#MEASURE 4/4
200020002000200010001000100010002000200020002000,
100010001000100020002000200020002000100020002000,
200020002000100000200000100000200000100000100000,
#GOGOEND
400000000000000000000000000000000000000000000000,
#END

COURSE:Hard
LEVEL:8
BALLOON:4,3,3,3,3,16,2,2,2,2,21,27
SCOREINIT:650
SCOREDIFF:160
#START
#GOGOSTART
#BARLINEOFF
,
,
,
,
,
,
#BARLINEON
#GOGOEND
#MEASURE 4/4
000000000000000000000000000000000000000000000000,
#MEASURE 13/16
000000000000000000000000
#BPMCHANGE 62
#SCROLL 0.5
400
#BPMCHANGE 248
#SCROLL 1
000000000000,
#GOGOSTART
#MEASURE 4/4
100000000000200000000000100000000000200000000000,
100000001000000000003000000000000000000000000000,
100000000000200000000000100000000000200000000000,
100000001000000000003000000000000000000000000000,
100000000000100000000000200000000000200000000000,
100000001000000000003000000000000000200000000000,
#GOGOEND
100000001000000000003000000000000000100000001000,
000030000000000000007000000000000000800000000000,
#GOGOSTART
100000000000100010001000100000000000100010001000,
100000000000200000000000100010001000100000000000,
100000000000000000000000300000000000300000000000,
600000000008000000003000000000000000000000000000,
100000000000100010001000100000000000100010001000,
100000000000200000000000100010001000100000000000,
100000000000000000000000300000000000300000000000,
600000000008000000003000000000000000000000000000,
100000000000100010001000100000000000100010001000,
100000000000200000000000100010001000100000000000,
100000000000000000000000300000000000300000000000,
600000000008000000003000000000000000000000000000,
100000001000000000001000000000001000000000001000,
#GOGOEND
#MEASURE 1/4
100000000000,
#SCROLL 2
000000000000,
000000000000,
#MEASURE 5/4
000000
#SCROLL 1
000000
#GOGOSTART
000000004000000000000000300000000000300000000000,
#MEASURE 4/4
600000000008000000003000000000000000200000000000,
#GOGOEND
200000000000200200200000200000000000000000000000,
100000000000100000000000100100100000100000000000,
100000000000000000000000300000000000300000000000,
600000000008000000003000000000000000200000000000,
200000000000200200200000200000000000000000000000,
100000000000100000000000100100100000100000000000,
100000000000000000000000300000000000300000000000,
600000000008000000003000000000000000000000000000,
#GOGOSTART
700000000000800000004000000000000000000000000000,
700000000000800000004000000000000000000000000000,
700000000000800000004000000000000000000000000000,
700000000000800000004000000000000000000000000000,
#GOGOEND
900000000000000000000000000000000000000000000000,
000000000000000000000000900000000000000000000000,
#GOGOSTART
800000000000000000000000000000000000000000000000,
#GOGOEND
600000000008000000003000000000000000000000000000,
#GOGOSTART
#MEASURE 13/4
400000000000100000000000100000000000100010001000
100000100000100000400000000000100000400000000000
100000400000000000100000000000100000100000100000
400000000000,
100000400000000000100000400000000000100000400000
000000000000100010001000100000000000400000000000
100000400000000000100000400000000000100000400000
000000100000,
#MEASURE 4/4
400000000000000010000000100010001000000010000000,
100010001000000000400000000000100000400000000000,
100000400000000000100000400000000000100000400000,
000000000000400000000000100010001000100000000000,
#GOGOEND
100000000000100000002000000000000000100000000000,
100000002000000000000000100000000000200000000000,
000000004000000000000000300000000000300000000000,
#MEASURE 12/4
600000000008
#BPMCHANGE 274
#SCROLL 0.91
000000003000000000000000000000000000
000000000000000000000000000000000000000000000000
000000000000000000000000000000000000000000000000,
#MEASURE 4/4
100000
#SCROLL 1.36
000500000080000000
#SCROLL 0.91
000000
#SCROLL 1.4
000500000080000000,
#SCROLL 0.91
000000
#SCROLL 1.45
000500000080000000
#SCROLL 0.91
000000
#SCROLL 1.5
000500000080000000,
#SCROLL 0.91
#GOGOSTART
300000000000100010001000100000000000100010001000,
100000000000200000000000100010001000100000000000,
100000000000000000000000300000000000300000000000,
600000000008000000003000000000000000000000000000,
#GOGOEND
200020002000200000000000200020002000200000000000,
100010001000100000000000100010001000100000000000,
200000200000000000200000200000000000100000100000,
000000100000100000000000400000000000000000000000,
#GOGOSTART
100000000000100010001000100000000000100010001000,
100000000000200000000000100010001000100000000000,
100000000000000000000000300000000000300000000000,
600000000008000000003000000000000000000000000000,
#GOGOEND
200000200000000000100000100000000000100000100000,
000000200000200000000000100000100000000000100000,
100000000000200000200000000000100000100000000000,
400000000400000000400000400000000000100000000000,
100000000000100100100000100000000000000000000000,
200000000000200000000000200000000000200000000000,
200000000000000000000000300000000000300000000000,
600000000008000000003000000000000000100000000000,
100000000000100100100000100000000000000000000000,
200000000000200000000000200200200000200000000000,
100000100000100000100000000000000000200000200000,
200000200000000000000000100000100000100000100000,
000000000000400000000000400000000000400000000000,
#GOGOSTART
700000000000800000004000000000000000000000000000,
700000000000800000004000000000000000000000000000,
700000000000800000004000000000000000000000000000,
700000000000800000004000000000000000000000000000,
#GOGOEND
700000000000000000000000000000000000000000000000,
000000000000000000000000000000000000000000000000,
#GOGOSTART
800000000000000000000000000000000000000000000000,
#BARLINEOFF
#BPMCHANGE 68.5
#SCROLL 16
#GOGOEND
680000000000000000000000000000000000000000000000,
#SCROLL 0.5
#MEASURE 1/16
300,
#BPMCHANGE 274
#SCROLL 1
#GOGOSTART
#MEASURE 3/4
700000000000000000000000000000000000,
#MEASURE 4/4
000000000000000000000000000000000000000000000000,
000000000000000000000000000000000000000000000000,
000000000000800000000000000000000000000000000000,
#GOGOEND
400000000000000000000000000000000000000000000000,
#END

COURSE:Normal
LEVEL:7
BALLOON:2,6,5,5,5,5,9,20,20,4,4,4,4,12,21
SCOREINIT:1070
SCOREDIFF:350
#START
#GOGOSTART
#BARLINEOFF
,
,
,
,
,
,
#BARLINEON
#GOGOEND
#MEASURE 4/4
000000000000000000000000000000000000000000000000,
#MEASURE 13/16
000000000000000000000000
#BPMCHANGE 62
#SCROLL 0.5
400
#BPMCHANGE 248
#SCROLL 1
000000000000,
#GOGOSTART
#MEASURE 4/4
100000000000200000000000100000000000200000000000,
100000000000000000003000000000000000000000000000,
100000000000200000000000100000000000200000000000,
100000000000000000003000000000000000000000000000,
100000000000200000000000100000000000200000000000,
100000000000000000003000000000000000000000000000,
#GOGOEND
300000000000000000000000000000000000100000001000,
000010000000000000007000000000000000080000000000,
#GOGOSTART
100000000000100000000000200000000000000000000000,
100000000000100000000000200000000000000000000000,
100000000000000000000000200000000000000000000000,
300000000000000000003000000000000000000000000000,
100000000000100000000000200000000000000000000000,
100000000000100000000000200000000000000000000000,
100000000000000000000000200000000000000000000000,
300000000000000000003000000000000000000000000000,
100000000000100000000000200000000000000000000000,
100000000000100000000000200000000000000000000000,
100000000000000000000000200000000000000000000000,
300000000000000000003000000000000000000000000000,
700000000000000000000000000000000000000000000000,
#GOGOEND
#MEASURE 1/4
800000000000,
#SCROLL 2
000000000000,
000000000000,
#MEASURE 5/4
000000
#SCROLL 1
000000
#GOGOSTART
000000000000000000000000000000000000000000000000,
#MEASURE 4/4
300000000000000000003000000000000000000000000000,
#GOGOEND
200000000000000000000000200000000000000000000000,
200000000000200000000000100000000000000000000000,
200000000000000000000000200000000000000000000000,
300000000000000000003000000000000000000000000000,
200000000000000000000000200000000000000000000000,
200000000000200000000000100000000000000000000000,
200000000000000000000000200000000000000000000000,
300000000000000000003000000000000000000000000000,
#GOGOSTART
700000000000000000000000000000000000800000000000,
700000000000000000000000000000000000800000000000,
700000000000000000000000000000000000800000000000,
700000000000000000000000000000000000800000000000,
#GOGOEND
900000000000000000000000000000000000000000000000,
000000000000000000000000900000000000000000000000,
#GOGOSTART
800000000000000000000000000000000000000000000000,
#GOGOEND
300000000000000000003000000000000000000000000000,
#GOGOSTART
#MEASURE 13/4
400000000000000000000000000000000000000000000000
000000000000000000300000000000000000400000000000
000000300000000000000000000000000000000000000000
400000000000,
000000300000000000000000400000000000000000300000
000000000000000000000000000000000000400000000000
000000300000000000000000400000000000000000300000
000000000000,
#MEASURE 4/4
400000000000000000000000000000000000000000000000,
000000000000000000300000000000000000400000000000,
000000300000000000000000400000000000000000300000,
000000000000400000000000000000000000000000000000,
#GOGOEND
100000000000000000002000000000000000100000000000,
000000002000000000000000100000000000100000000000,
100000000000000000000000200000000000000000000000,
#MEASURE 12/4
300000000000
#BPMCHANGE 274
#SCROLL 0.91
000000003000000000000000000000000000
000000000000000000000000000000000000000000000000
000000000000000000000000000000000000000000000000,
#MEASURE 4/4
500000
000000000000000000
000000
000000000000000000,
000000
000000000000000000
000000
000008000000000000,
#GOGOSTART
100000000000100000000000200000000000000000000000,
100000000000100000000000200000000000000000000000,
100000000000000000000000200000000000000000000000,
300000000000000000003000000000000000000000000000,
#GOGOEND
700000000000000000000000000000000000000000000000,
000000000000000000000000000000000000000000000000,
000000000000000000000000000000000000000000000000,
000000000000000000000000800000000000000000000000,
#GOGOSTART
100000000000100000000000200000000000000000000000,
100000000000100000000000200000000000000000000000,
100000000000000000000000200000000000000000000000,
300000000000000000003000000000000000000000000000,
#GOGOEND
700000000000000000000000000000000000000000000000,
000000000000000000000000000000000000000000000000,
000000000000000000000000000000000000000000000000,
000000000000000000000000800000000000000000000000,
200000000000000000000000200000000000000000000000,
200000000000200000000000100000000000000000000000,
200000000000000000000000200000000000000000000000,
300000000000000000003000000000000000000000000000,
100000000000000000000000200000000000000000000000,
100000000000100000000000200000000000000000000000,
100000000000000000100000000000000000200000000000,
000000200000000000000000100000000000000000100000,
000000000000400000000000000000000000000000000000,
#GOGOSTART
700000000000000000000000000000000000800000000000,
700000000000000000000000000000000000800000000000,
700000000000000000000000000000000000800000000000,
700000000000000000000000000000000000800000000000,
#GOGOEND
700000000000000000000000000000000000000000000000,
000000000000000000000000000000000000000000000000,
#GOGOSTART
800000000000000000000000000000000000000000000000,
#BARLINEOFF
#BPMCHANGE 68.5
#SCROLL 16
#GOGOEND
680000000000000000000000000000000000000000000000,
#SCROLL 0.5
#MEASURE 1/16
300,
#BPMCHANGE 274
#SCROLL 1
#GOGOSTART
#MEASURE 3/4
700000000000000000000000000000000000,
#MEASURE 4/4
000000000000000000000000000000000000000000000000,
000000000000000000000000000000000000000000000000,
000000000000000000000000000000000000000000000000,
#GOGOEND
800000000000000000000000000000000000000000000000,
#END

COURSE:Easy
LEVEL:5
BALLOON:4,5,3,3,3,3,7,15,15,3,3,3,3,9,16
SCOREINIT:710
SCOREDIFF:220
#START
#GOGOSTART
#BARLINEOFF
,
,
,
,
,
,
#BARLINEON
#GOGOEND
#MEASURE 4/4
000000000000000000000000000000000000000000000000,
#MEASURE 13/16
000000000000000000000000
#BPMCHANGE 62
#SCROLL 0.5
400
#BPMCHANGE 248
#SCROLL 1
000000000000,
#GOGOSTART
#MEASURE 4/4
100000000000000000000000100000000000000000000000,
100000000000000000000000000000000000000000000000,
100000000000000000000000100000000000000000000000,
100000000000000000000000000000000000000000000000,
100000000000000000000000100000000000000000000000,
100000000000000000000000000000000000000000000000,
#GOGOEND
300000000000000000000000000000000000700000000000,
000000000000000000000000800000000000000000000000,
#GOGOSTART
100000000000000000000000100000000000000000000000,
100000000000100000000000100000000000000000000000,
100000000000000000000000000000000000000000000000,
300000000000000000003000000000000000000000000000,
100000000000000000000000100000000000000000000000,
100000000000100000000000100000000000000000000000,
100000000000000000000000000000000000000000000000,
300000000000000000003000000000000000000000000000,
100000000000000000000000100000000000000000000000,
100000000000100000000000100000000000000000000000,
100000000000000000000000000000000000000000000000,
300000000000000000003000000000000000000000000000,
700000000000000000000000000000000000000000000000,
#GOGOEND
#MEASURE 1/4
800000000000,
#SCROLL 2
000000000000,
000000000000,
#MEASURE 5/4
000000
#SCROLL 1
000000
#GOGOSTART
000000000000000000000000000000000000000000000000,
#MEASURE 4/4
300000000000000000003000000000000000000000000000,
#GOGOEND
200000000000000000000000200000000000000000000000,
200000000000200000000000200000000000000000000000,
200000000000000000000000000000000000000000000000,
300000000000000000003000000000000000000000000000,
200000000000000000000000200000000000000000000000,
200000000000200000000000200000000000000000000000,
200000000000000000000000000000000000000000000000,
300000000000000000003000000000000000000000000000,
#GOGOSTART
700000000000000000000000000000800000000000000000,
700000000000000000000000000000800000000000000000,
700000000000000000000000000000800000000000000000,
700000000000000000000000000000800000000000000000,
#GOGOEND
900000000000000000000000000000000000000000000000,
000000000000000000000000900000000000000000000000,
#GOGOSTART
800000000000000000000000000000000000000000000000,
#GOGOEND
300000000000000000003000000000000000000000000000,
#GOGOSTART
#MEASURE 13/4
400000000000000000000000000000000000000000000000
000000000000000000300000000000000000300000000000
000000300000000000000000000000000000000000000000
400000000000,
000000400000000000000000400000000000000000400000
000000000000000000000000000000000000300000000000
000000300000000000000000300000000000000000300000
000000000000,
#MEASURE 4/4
300000000000000000000000000000000000000000000000,
000000000000000000400000000000000000400000000000,
000000400000000000000000400000000000000000400000,
000000000000400000000000000000000000000000000000,
#GOGOEND
100000000000000000000000000000000000100000000000,
000000000000000000000000200000000000000000000000,
000000000000000000000000000000000000000000000000,
#MEASURE 12/4
300000000000
#BPMCHANGE 274
#SCROLL 0.91
000000003000000000000000000000000000
000000000000000000000000000000000000000000000000
000000000000000000000000000000000000000000000000,
#MEASURE 4/4
500000
000000000000000000
000000
000000000000000000,
000000
000000000000000000
000008
000000000000000000,
#GOGOSTART
100000000000000000000000100000000000000000000000,
100000000000100000000000100000000000000000000000,
100000000000000000000000000000000000000000000000,
300000000000000000003000000000000000000000000000,
#GOGOEND
700000000000000000000000000000000000000000000000,
000000000000000000000000000000000000000000000000,
000000000000000000000000000000000000000000000000,
000000000000000000000000800000000000000000000000,
#GOGOSTART
100000000000000000000000100000000000000000000000,
100000000000100000000000100000000000000000000000,
100000000000000000000000000000000000000000000000,
300000000000000000003000000000000000000000000000,
#GOGOEND
700000000000000000000000000000000000000000000000,
000000000000000000000000000000000000000000000000,
000000000000000000000000000000000000000000000000,
000000000000000000000000800000000000000000000000,
200000000000000000000000200000000000000000000000,
200000000000200000000000200000000000000000000000,
200000000000000000000000000000000000000000000000,
300000000000000000003000000000000000000000000000,
200000000000000000000000200000000000000000000000,
200000000000200000000000200000000000000000000000,
100000000000000000000000000000000000200000000000,
000000000000000000000000100000000000000000000000,
000000000000200000000000000000000000000000000000,
#GOGOSTART
700000000000000000000000000000800000000000000000,
700000000000000000000000000000800000000000000000,
700000000000000000000000000000800000000000000000,
700000000000000000000000000000800000000000000000,
#GOGOEND
700000000000000000000000000000000000000000000000,
000000000000000000000000000000000000000000000000,
#GOGOSTART
800000000000000000000000000000000000000000000000,
#BARLINEOFF
#BPMCHANGE 68.5
#SCROLL 16
#GOGOEND
680000000000000000000000000000000000000000000000,
#SCROLL 0.5
#MEASURE 1/16
300,
#BPMCHANGE 274
#SCROLL 1
#GOGOSTART
#MEASURE 3/4
700000000000000000000000000000000000,
#MEASURE 4/4
000000000000000000000000000000000000000000000000,
000000000000000000000000000000000000000000000000,
000000000000000000000000000000000000000000000000,
#GOGOEND
800000000000000000000000000000000000000000000000,
#END
