//TJADB Project
TITLE:Taiko Roll
TITLEJA:タイコロール
SUBTITLE:--steμ feat. siroa
SUBTITLEJA:steμ feat.siroa
BPM:87.6
WAVE:Taiko Roll.ogg
OFFSET:-2.843
DEMOSTART:8.666

COURSE:Oni
LEVEL:10
BALLOON:33,33,33,6,9
SCOREINIT:420
SCOREDIFF:90
#START
#BARLINEOFF
#MEASURE 1/8
111,
#BARLINEON
#MEASURE 4/4
100111100111100111200000,
100111100111100111200000,
100111100222100111200100,
100111100222100111200100,
100111100222100111200100,
100111100222100111200100,
100000101010100200100000100000101010200200100000,
100000101010200200200000100000000000100000500000,
000000000000000000000000000000000000000008000000,
#BPMCHANGE 187.6
#SCROLL 0.54
7,
#SCROLL 0.63
0008,
#SCROLL 0.74
7,
#SCROLL 0.86
0008,//14
#SCROLL 1
#GOGOSTART
1000201120112120,
1210201122112010,
2000201020112120,
1210201122112010,
2000201120102012,
2010201120102012,
2011211020122210,
2211221122121210,
7,
0008,
200010002000100020001000200100200200100200100200,//25
#GOGOEND
7000000008000000,
1011101110111012,
1011101110111022,
1011101110111012,
1011101110111022,
1000201120112110,
1010221020112210,
1010222110222210,
3003003011112022,
1022102210221012,
1022102210221222,
1022102210221012,
1022102210221222,
1000201120122210,
2010201120121210,
33304440,
33334440,
#SCROLL 1.07
1022102012112210,
2110201210201120,
1010201110102010,
0010201110102010,
#SCROLL 1.06
1110201120201110,
2011202011102020,
#SCROLL 1.07
1000201212202020,
0020001212202220,
#SCROLL 0.86
1022102011202210,
1022102011202210,
#SCROLL 1.36
1022102011201022,
1020112010221020,
#SCROLL 1.17
1110202011102020,
1000200000112020,
1000200011202010,
0020002210102010,
#SCROLL 1
1011201020121010,
2012201020121010,
#SCROLL 1.42
0010111020004010,
0010122010004000,
#SCROLL 1.17
3000300022202010,
0020002000221020,
#SCROLL 1.49
30201121,
500000000000000000000000000000000008000000000000,
#SCROLL 1
30030030,
2022,
2,
2022,
2,
1000100010201012,
1000100010201012,
1112102011121020,
2111211121104012,
1000201120112210,
2211202211221120,
1000201120112110,
2111202111212121,
1022101121112022,
1011221120221011,
2212212210222210,
4004004021212210,//83
#GOGOSTART
1011101210121210,
100000100200100000102020100000100200100200200200,
1111111111111111,
7008
#GOGOEND
0000,
#BPMCHANGE 87.6
#GOGOSTART
100111100100200200111222,
100111100100200200111222,
100111100222100100222111,
100111100222100100222111,
100000100000101010100200100200100000101010100200,
100200100000101010100200100000000000100000500000,
000000000000000000000000000000000000000008000000,
100111100200100000100600,
,
000000000000000000000000000000000000000008000000,//97
#GOGOEND
4,
#END

COURSE:Hard
LEVEL:7
BALLOON:28,16,26
SCOREINIT:590
SCOREDIFF:140
#START
#BARLINEOFF
#MEASURE 1/8
,
#BARLINEON
#MEASURE 4/4
1212,
1210,
1022200010102000,
1022202010002000,
1022200010102000,
1022202010002000,
1110002011100020,
1110002010001050,
000000000000000000000000000000000000000008000000,
#BPMCHANGE 187.6
#SCROLL 0.6
7,
#SCROLL 0.7
,
#SCROLL 0.8
,
#SCROLL 0.9
08,//14
#SCROLL 1
#GOGOSTART
10102120,
1000201020111000,
10102120,
1000201020222000,
10102120,
1000201020111000,
10102120,
1000201020222000,
7,
0008,
500000000000000000000000000000000000000000000008,//25
#GOGOEND
,
10101011,
10121012,
10101011,
10121012,
10112120,
10112120,
1110200011102000,
500000000000000000000000000000000008000000000000,
10101011,
10121012,
10101011,
10121012,
10112120,
10112120,
32203220,
600000000000000000000000000000000008000000000000,
10210120,
11201120,
10201121,
01201121,
1110201020201110,
2010202011102020,
10211112,
02011020,
1020102011101020,
1020102011101020,
10101122,
1020102010111000,
10112211,
10100111,
20101122,
01002211,
1011101020002000,
1022201020002010,
00101021,
0112,
10101102,
02020202,
3212,
500000000000000000000000000000000000000008000000,
,
2,
2,
2,
2,
1000100010001011,
1000100010001011,
1212,
500000000000000000000000000000000008000000000000,
1000100020111010,
10102121,
1000100020111010,
10102121,
1000200011102000,
1000201011102000,
1000200011102000,
3,//83
#GOGOSTART
3000300011102020,
3000300011102020,
5,
000000000000000008//87-1
#GOGOEND
000000000000000000000000000000,//87-2
#BPMCHANGE 87.6
#GOGOSTART
1022200010102000,
1022202010002000,
1022200010102000,
1022202010002000,
1110002011100020,
1110002010001070,
00000008,
00021026,
,
000000000000000000000000000000000000000000000008,//97
#GOGOEND
,
#END

COURSE:Normal
LEVEL:6
BALLOON:23,11,18
SCOREINIT:660
SCOREDIFF:163
#START
#BARLINEOFF
#MEASURE 1/8
,
#BARLINEON
#MEASURE 4/4
1112,
1120,
10201120,
1210,
10201120,
1210,
11021102,
11021015,
000000000000000000000000000000000000000008000000,
#BPMCHANGE 187.6
#SCROLL 0.6
7,
#SCROLL 0.7
,
#SCROLL 0.8
,
#SCROLL 0.9
08,//14
#SCROLL 1
#GOGOSTART
1111,
1120,
1111,
1120,
1111,
1120,
1111,
2220,
7,
0008,
500000000000000000000000000000000000000000000008,//25
#GOGOEND
,
1111,
10101011,
1111,
10101011,
1120,
1120,
1212,
500000000000000000000000000000000008000000000000,
1111,
10102011,
1111,
10102011,
1120,
1120,
3232,
600000000000000000000000000000000008000000000000,
1212,
10201120,
00101101,
00101101,
11220221,
01221122,
10111002,
02000000,
10201110,
10201110,
10101011,
10101011,
10101011,
1101,
10101011,
02001010,
10112020,
10122020,
1110,
2220,
30300004,
04040000,
1011,
500000000000000000000000000000000000000008000000,
,
2,
,
2,
,
10101011,
10101011,
1212,
500000000000000000000000000000000008000000000000,
10102011,
10102011,
10102011,
10102011,
1212,
1212,
11,
1,//83
#GOGOSTART
30302220,
30302220,
5,
000000000000000008//87-1
#GOGOEND
000000000000000000000000000000,//87-2
#BPMCHANGE 87.6
#GOGOSTART
10201120,
1210,
10201120,
1210,
11021102,
11021017,
00000008,
00021016,
,
000000000000000000000000000000000000000000000008,//97
#GOGOEND
,
#END

COURSE:Easy
LEVEL:5
BALLOON:15,9,15
SCOREINIT:540
SCOREDIFF:125
#START
#BARLINEOFF
#MEASURE 1/8
,
#BARLINEON
#MEASURE 4/4
1111,
12,
1110,
1110,
1110,
1110,
11001100,
11001015,
000000000000000000000000000000000000000008000000,
#BPMCHANGE 187.6
#SCROLL 0.6
7,
#SCROLL 0.7
,
#SCROLL 0.8
,
#SCROLL 0.9
08,//14
#SCROLL 1
#GOGOSTART
11,
1110,
11,
1110,
12,
1120,
12,
1120,
7,
0008,
500000000000000000000000000000000000000000000008,//25
#GOGOEND
,
1011,
1110,
1011,
1110,
1120,
1120,
11,
500000000000000000000000000008000000000000000000,
1011,
1110,
1011,
1110,
1120,
1120,
33,
600000000000000000000000000008000000000000000000,
1110,
22,
00101001,
00101001,
11220222,
01101110,
10000001,
01000000,
1110,
1122,
1111,
1111,
1110,
1100,
10100001,
0011,
1122,
1122,
11,
22,
30300003,
03030000,
11,
500000000000000000000000000000000000000008000000,
,
2,
,
2,
,
11,
11,
1111,
500000000000000000000000000008000000000000000000,
1120,
1120,
1120,
1120,
1110,
1110,
11,
1,//83
#GOGOSTART
1111,
1111,
5,
000000000000000008//87-1
#GOGOEND
000000000000000000000000000000,//87-2
#BPMCHANGE 87.6
#GOGOSTART
10101110,
1120,
10101110,
1120,
11001100,
11001017,
00000008,
00002006,
,
000000000000000000000000000000000000000000000008,//97
#GOGOEND
,
#END
