//TJADB Project
TITLE:Fantaisie-Impromptu
TITLEJA:幻想即興曲
SUBTITLE:--Yuuji Masubuchi
SUBTITLEJA:ショパン
BPM:114
WAVE:Fantaisie-Impromptu.ogg
OFFSET:-2.347
DEMOSTART:10.760

COURSE:Oni
LEVEL:9
BALLOON:20,6
SCOREINIT:540
SCOREDIFF:130
#START
3,
7008,
100000001000100010000000200000000000100000001000,
100000001000100010000000200020001000200020001000,
100000001000100010000000200000000000000010000000,
100000001000100010000000200000000000000010000000,
100000001000100010000000200000002000100010000000,
1221122121121211,
100000001000100010000000200000000000000010000000,
100000001000100010000000200000002000100010000000,
#BPMCHANGE 227.03
#SCROLL 0.7
3000000000000011,
#BPMCHANGE 227.81
2000000020202020,
#SCROLL 0.8
1020201010202010,
200000100000200000100000500000000000008000000000,
#GOGOSTART
11211121,
11211121,
#BPMCHANGE 228.53
11211121,
1010201010102011,
#BPMCHANGE 227.66
11211121,
11211121,
#BPMCHANGE 229.18
11221122,
1010221110102000,
#BPMCHANGE 226.13
11211121,
#BPMCHANGE 227.37
11211121,
#BPMCHANGE 229.26
11211121,
#BPMCHANGE 227.16
1010201010102011,
12111211,
12111211,
#BPMCHANGE 229.51
22210122,
2010001022221000,
#BPMCHANGE 114
#SCROLL 1.6
3378,
#GOGOEND
#SCROLL 1
100000001000100010000000200000000000100000001000,
100000001000100010000000200000200000200200100000,
1021021202212212,
0110112220210212,
100000000000000000000000200020001000100010002020,
100000002000002010001000200000201000200020002020,
1021021202212212,
0221221220210210,
#MEASURE 2/4
3,
#MEASURE 4/4
#BPMCHANGE 171
1020201010102022,
1010201110102011,
2010201020222222,
#GOGOSTART
1111211111112111,
1111211111112111,
1111211111112111,
1111202212112022,
1111211111112111,
1111211111112111,
1211121112111211,
2221002221002211,
2221012221011030,
1020012010210120,
1120112010210120,
0120112010210120,
100100200000100100200000100020002000200010001000,
#GOGOEND
#MEASURE 6/4
300000000000000000001010
#BPMCHANGE 114
#SCROLL 1.5
200000000000000000000000
#SCROLL 1
100100200100100100200100,
#MEASURE 4/4
1221122112211221,
500000000000000000000000000000000000008000000000,
100100100100100100100100101010100100100100100100,
#END

COURSE:Hard
LEVEL:8
BALLOON:16
SCOREINIT:710
SCOREDIFF:170
#START
3,
7008,
101110200000,
101110220220,
101110200000,
101110200000,
101110202220,
1110222011103000,
101110200000,
101110200000,
#BPMCHANGE 227.03
#SCROLL 0.7
3,
#BPMCHANGE 227.81
4,
#SCROLL 0.8
11101110,
100000000000100000000000500000000008000000000000,
#GOGOSTART
11201120,
11201120,
#BPMCHANGE 228.53
11201120,
11201120,
#BPMCHANGE 227.66
11201120,
11201120,
#BPMCHANGE 229.18
11221120,
10101110,
#BPMCHANGE 226.13
11201120,
#BPMCHANGE 227.37
11201120,
#BPMCHANGE 229.26
11201120,
#BPMCHANGE 227.16
11201120,
12101210,
12101210,
#BPMCHANGE 229.51
11110022,
22001010,
#BPMCHANGE 114
#SCROLL 1.5
3330,//31
#GOGOEND
#SCROLL 1
101110200000,
100010101000200200200000,
1001001002212000,
1001001002212000,
100000222200,
102011201120,
1001001002212000,
0221200010010010,
#MEASURE 2/4
3,
#MEASURE 4/4
#BPMCHANGE 171
12222220,
11201120,
200000100000200000100000500000000000000008000000,//43
#GOGOSTART
11211121,
11211121,
11211121,
1010201110101000,
11211121,
11211121,
11211120,
1002001002003000,
1002001002002020,
1020102010201110,
1020102010201110,
1020102010201110,
1020102011101000,//56
#GOGOEND
#MEASURE 6/4
3
#BPMCHANGE 114
#SCROLL 1.5
0
#SCROLL 1
0,
#MEASURE 4/4
1120112011201120,
500000000000000000000000000000000008000000000000,
1111111111111111,
,
,
,
#END

COURSE:Normal
LEVEL:7
BALLOON:12,4
SCOREINIT:1000
SCOREDIFF:260
#START
500000000000000000000000000000000000000008000000,
7008,
12,
101200,
12,
101200,
110220,
1130,
12,
101200,
#BPMCHANGE 227.03
#SCROLL 0.5
4,
#BPMCHANGE 227.81
3,
#SCROLL 0.6
11,
1110,//14
#GOGOSTART
1212,
1212,
#BPMCHANGE 228.53
1212,
1110,
#BPMCHANGE 227.66
1212,
1212,
#BPMCHANGE 229.18
1212,
2220,
#BPMCHANGE 226.13
1212,
#BPMCHANGE 227.37
1212,
#BPMCHANGE 229.26
1212,
#BPMCHANGE 227.16
1110,
1212,
1210,
#BPMCHANGE 229.51
10010010,
02,
#BPMCHANGE 114
#SCROLL 1.2
3330,//31
#GOGOEND
#SCROLL 1
12,
101200,
1001001020000000,
1001001020000000,
3,
121210,
1001001020000000,
2002002010000000,
#MEASURE 2/4
3,
#SCROLL 0.8
#MEASURE 4/4
#BPMCHANGE 171
4,
11101110,
1130,//43
#GOGOSTART
11101110,
1110,
11101110,
2220,
11101110,
1110,
11101110,
30030000,
30030000,
10101110,
10101110,
11101010,
11101110,//56
#GOGOEND
#MEASURE 6/4
3
#BPMCHANGE 114
00,
#MEASURE 4/4
1111,
90098000,
1000100010001011,
,
,
,
#END

COURSE:Easy
LEVEL:5
BALLOON:10,7,7,6
SCOREINIT:820
SCOREDIFF:230
#START
500000000000000000000000000000000000000008000000,
7008,
12,
13,
12,
12,
11,
1130,
12,
12,
#BPMCHANGE 227.03
#SCROLL 0.5
1,
#BPMCHANGE 227.81
3,
#SCROLL 0.6
5,
000000000000000000000008000000000000000000000000,//14
#GOGOSTART
1110,
1110,
#BPMCHANGE 228.53
11,
1110,
#BPMCHANGE 227.66
1110,
1110,
#BPMCHANGE 229.18
22,
2220,
#BPMCHANGE 226.13
1110,
#BPMCHANGE 227.37
1110,
#BPMCHANGE 229.26
11,
#BPMCHANGE 227.16
1110,
1110,
2220,
#BPMCHANGE 229.51
3003,
,
#BPMCHANGE 114
#SCROLL 1.2
3330,//31
#GOGOEND
#SCROLL 1
12,
12,
110200,
110200,
3,
111,
110200,
220100,
#MEASURE 2/4
3,
#SCROLL 0.8
#MEASURE 4/4
#BPMCHANGE 171
4,
11,
1130,//43
#GOGOSTART
11,
1110,
11,
2220,
11,
1110,
11,
7008,
7008,
1212,
1212,
1212,
1212,//56
#GOGOEND
#MEASURE 6/4
1
#BPMCHANGE 114
00,
#MEASURE 4/4
1111,
500000000000000000000000000000000008000000000000,
9009,
8,
,
,
#END
