//TJADB Project
TITLE:Synchronica Airlines
TITLEJA:シンクロニカ・エアライン
SUBTITLE:--Taku Inoue/Synchronica
SUBTITLEJA:Taku Inoue 「シンクロニカ」より
BPM:140
WAVE:Synchronica Airlines.ogg
OFFSET:-3.184
DEMOSTART:48.130

COURSE:Oni
LEVEL:9
BALLOON:3,3,3,6,14,14,20
SCOREINIT:410
SCOREDIFF:90
#START
2202002002002002,
2020020020220020,
2002002002002002,
200000200200000200200000000200000000200000202020,
1101001001001002,
1010010010210010,
#MEASURE 6/4
110100100100300300300010,
#MEASURE 4/4
1121021001012101,
2220120120120010,
1021001001021011,
2012012012012010,
1012001021002112,
2020120122122222,
#MEASURE 6/4
110100100100100100104000,
#MEASURE 4/4
1101221001221022,
1012012002210222,
1022012022021122,
101010101010100100200000100200000100200000200000,
1102101101012210,
1021021022122212,
#MEASURE 6/4
221202102210221022122212,
#MEASURE 4/4
11111111,
#MEASURE 5/4
100100100100100200100200101010101010101010101010
#SCROLL 3
300000000000,
#MEASURE 1/8
#SCROLL 1
,
#SCROLL 1.5
,
#SCROLL 2
,
#SCROLL 2.5
,
#SCROLL 3
,
#SCROLL 3.5
,
#SCROLL 4
,
#SCROLL 4.5
,
#SCROLL 5
,
#SCROLL 5.5
,
#SCROLL 6
,
#MEASURE 3/8
#SCROLL 6.5
0
#SCROLL 1
40,
#GOGOSTART
#MEASURE 4/4
1103003003004011,
1030030030110030,
100000100200000100200000100200000100200020002000,
1021021021011210,
1103003003003011,
1030030030112122,
1103004003004003,
00400300
#GOGOEND
00000000,
#SCROLL 1.25
#GOGOSTART
2212212212212112,
100100200100100200100100100100200200102020100000,
200100100200100100200200102020200100200020001000,
1121121222112110,
500000000000000000000000000008000000200000700000,
82782782,
600000000000000000000000000008000000100000100000,
7000801221121122,
1112112112112212,
2122122122221122,
1121121121121122,
100200200200101010102020101010102020101010200000,
500000000000000000000000000000000000000000000008,
0333,
200200100200200100200200101010102020101010102020,
112211221122111111111200,
#MEASURE 3/4
,
#GOGOEND
#SCROLL 1
#MEASURE 4/4
1002002020020020,
1001001010010010,
2002002070000000,
0810,
1002002020020020,
1001001010010010,
2002002070000000,
0830,
2002102012021020,
100000000200100000200000200100200000202010100000,
2002102012021020,
1002102021011010,
#MEASURE 6/4
100100100100102100200120,
#MEASURE 4/4
12221222,
#MEASURE 5/4
100200200200100200200200101010101010101010101010
#SCROLL 3
300000000000,
#MEASURE 1/8
#SCROLL 1
,
#SCROLL 1.5
,
#SCROLL 2
,
#SCROLL 2.5
,
#SCROLL 3
,
#SCROLL 3.5
,
#SCROLL 4
,
#SCROLL 4.5
,
#SCROLL 5
,
#SCROLL 5.5
,
#SCROLL 6
,
#MEASURE 3/8
#SCROLL 6.5
0
#SCROLL 1
40,
#GOGOSTART
#MEASURE 4/4
1103003003004011,
1030030030110030,
100000100200000100200000100200000100200020002000,
1021021021011210,
1103003003003011,
1030030030112122,
#MEASURE 6/4
111221111221221221211211,
200200200200100100200100100200100100200100100200100100101010101010101010,
#MEASURE 4/4
2212212212212112,
#MEASURE 3/4
100100200200101010102020101010101010,
#MEASURE 4/4
2222700000000000,
00008000
#GOGOEND
30030030,
#END

COURSE:Hard
LEVEL:7
BALLOON:13,11,7,16,9,9,13
#START
2002002002002000,
2020020020200020,
2002002002002002,
2022022002000000,
1001001001001000,
1010010010100010,
#MEASURE 6/4
500000000000000000000000000000000000000000000000000008000000000000000000,
#MEASURE 4/4
1011001011001000,
2020020020020000,
1011001011001000,
2002002002002000,
1011001011001000,
2020020020020000,
#MEASURE 6/4
700000000800,
#MEASURE 4/4
1021001021001000,
2020020000000020,
1021001021001001,
1011011022002020,
1011001011001000,
2022002022002000,
#MEASURE 6/4
11111111,
#MEASURE 4/4
11111111,
#MEASURE 5/4
1110111011101110
#SCROLL 3
3000,
#MEASURE 1/8
#SCROLL 1
,
#SCROLL 1.5
,
#SCROLL 2
,
#SCROLL 2.5
,
#SCROLL 3
,
#SCROLL 3.5
,
#SCROLL 4
,
#SCROLL 4.5
,
#SCROLL 5
,
#SCROLL 5.5
,
#SCROLL 6
,
#MEASURE 3/8
#SCROLL 6.5
0
#SCROLL 1
40,
#GOGOSTART
#MEASURE 4/4
3003003003004000,
3030030030030000,
2002002002002000,
3003003003003000,
3003003003004000,
3030030030030000,
3004003004007000,
0
#GOGOEND
8,
#GOGOSTART
1101101101102202,
2022022010102220,
1102201010102000,
1110111020202000,
500000000000000000000000000008000000100000100000,
01101101,
600000000000000000000000000008000000100000100000,
78,
1102201102201102,
2011022010102000,
1102201102201020,
1020102011101110,
500000000000000000000000000000000000000000000008,
0333,
1001001001001101,
1011011090000000,
#MEASURE 3/4
090,
#GOGOEND
#SCROLL 1
#MEASURE 4/4
8,
1001001010010010,
2002002070000000,
0810,
11,
1001001010010010,
2002002070000000,
0830,
5,
000000000000000000000000000000000000000000000008,
01,
1001101020102220,
#MEASURE 6/4
6,
#MEASURE 4/4
08,
#MEASURE 5/4
1110111011101110
#SCROLL 3
3000,
#MEASURE 1/8
#SCROLL 1
,
#SCROLL 1.5
,
#SCROLL 2
,
#SCROLL 2.5
,
#SCROLL 3
,
#SCROLL 3.5
,
#SCROLL 4
,
#SCROLL 4.5
,
#SCROLL 5
,
#SCROLL 5.5
,
#SCROLL 6
,
#MEASURE 3/8
#SCROLL 6.5
0
#SCROLL 1
40,
#GOGOSTART
#MEASURE 4/4
3003003003004000,
3030030030030000,
2002002002002000,
3003003003003000,
3003003003004000,
3030030030030000,
#MEASURE 6/4
110110110110120120120120,
220220220220220220400000,
#MEASURE 4/4
1102201102201102,
#MEASURE 3/4
215000,
#MEASURE 4/4
000008000000700000000000000000000000000000000000,
00008000
#GOGOEND
30030030,
,
#END

COURSE:Normal
LEVEL:6
BALLOON:7,11,8,5,12,7,5,11,11
#START
20020020,
22,
20020020,
2,
1001001001001000,
11,
#MEASURE 6/4
500000000000000000000000000000000000000000000000000008000000000000000000,
#MEASURE 4/4
1001001001001000,
22,
1001001001001000,
22,
10010010,
22,
#MEASURE 6/4
700000000800,
#MEASURE 4/4
1001001001001000,
2022,
1001001001005000,
000000000000000000000008000000000000000000000000,
1001001001001000,
2022,
#MEASURE 6/4
1111,
#MEASURE 4/4
11101110,
#MEASURE 5/4
70008,
#MEASURE 1/8
#SCROLL 1
,
#SCROLL 1.5
,
#SCROLL 2
,
#SCROLL 2.5
,
#SCROLL 3
,
#SCROLL 3.5
,
#SCROLL 4
,
#SCROLL 4.5
,
#SCROLL 5
,
#SCROLL 5.5
,
#SCROLL 6
,
#MEASURE 3/8
#SCROLL 6.5
0
#SCROLL 1
40,
#GOGOSTART
#MEASURE 4/4
6,
08003000,
2002002002002000,
3003003003003000,
6,
08003000,
3003003003007000,
0
#GOGOEND
8,
#GOGOSTART
10101011,
10102220,
10101011,
10111110,
500000000000000000000000000008000000000000000000,
1111,
600000000000000000000000000008000000000000000000,
78,
10101011,
10102220,
10101011,
10111110,
500000000000000000000000000000000000000000000008,
0333,
1001001001001001,
0010010090000000,
#MEASURE 3/4
090,
#GOGOEND
#SCROLL 1
#MEASURE 4/4
8,
11,
1001001070000000,
0800,
1,
11,
1001001070000000,
0830,
5,
000000000000000000000000000000000000000000000008,
01,
10102120,
#MEASURE 6/4
6,
#MEASURE 4/4
08,
#MEASURE 5/4
70008,
#MEASURE 1/8
#SCROLL 1
,
#SCROLL 1.5
,
#SCROLL 2
,
#SCROLL 2.5
,
#SCROLL 3
,
#SCROLL 3.5
,
#SCROLL 4
,
#SCROLL 4.5
,
#SCROLL 5
,
#SCROLL 5.5
,
#SCROLL 6
,
#MEASURE 3/8
#SCROLL 6.5
0
#SCROLL 1
40,
#GOGOSTART
#MEASURE 4/4
6,
08003000,
2002002002002000,
3003003003003000,
6,
08003000,
#MEASURE 6/4
11111111,
22222240,
#MEASURE 4/4
1002001002001002,
#MEASURE 3/4
015000,
#MEASURE 4/4
000008000000900000000000000000000000000000000000,
98
#GOGOEND
00,
,
#END

COURSE:Easy
LEVEL:4
BALLOON:7,8,8,5,8,5,5,8,7
#START
2,
2,
2,
2,
10010010,
11,
#MEASURE 6/4
500000000000000000000000000000000000000000000000000008000000000000000000,
#MEASURE 4/4
10010010,
1,
10010010,
1,
10010010,
1,
#MEASURE 6/4
700000000800,
#MEASURE 4/4
10010010,
2,
10010050,
000000000000000000000008000000000000000000000000,
10010010,
22,
#MEASURE 6/4
1111,
#MEASURE 4/4
1111,
#MEASURE 5/4
70008,
#MEASURE 1/8
#SCROLL 1
,
#SCROLL 1.5
,
#SCROLL 2
,
#SCROLL 2.5
,
#SCROLL 3
,
#SCROLL 3.5
,
#SCROLL 4
,
#SCROLL 4.5
,
#SCROLL 5
,
#SCROLL 5.5
,
#SCROLL 6
,
#MEASURE 3/8
#SCROLL 6.5
0
#SCROLL 1
40,
#GOGOSTART
#MEASURE 4/4
6,
08003000,
20020020,
30030030,
6,
08003000,
30030070,
0
#GOGOEND
8,
#GOGOSTART
1111,
1120,
1111,
1111,
500000000000000000000008000000000000100000000000,
01001000,
600000000000000000000000000008000000000000000000,
78,
1111,
1120,
1111,
1111,
500000000000000000000000000000000000000000000008,
0333,
10010010,
01009000,
#MEASURE 3/4
090,
#GOGOEND
#SCROLL 1
#MEASURE 4/4
8,
11,
17,
0800,
,
11,
17,
0830,
5,
000000000000000000000000000000000000000000000008,
01,
1110,
#MEASURE 6/4
6,
#MEASURE 4/4
08,
#MEASURE 5/4
70008,
#MEASURE 1/8
#SCROLL 1
,
#SCROLL 1.5
,
#SCROLL 2
,
#SCROLL 2.5
,
#SCROLL 3
,
#SCROLL 3.5
,
#SCROLL 4
,
#SCROLL 4.5
,
#SCROLL 5
,
#SCROLL 5.5
,
#SCROLL 6
,
#MEASURE 3/8
#SCROLL 6.5
0
#SCROLL 1
40,
#GOGOSTART
#MEASURE 4/4
6,
08003000,
20020020,
30030030,
6,
08003000,
#MEASURE 6/4
1111,
2224,
#MEASURE 4/4
1000001000001001,
#MEASURE 3/4
015000,
#MEASURE 4/4
000008000000900000000000000000000000000000000000,
98
#GOGOEND
00,
,
#END
