//TJADB Project
TITLE:Byoushin wo Kamu
TITLEJA:秒針を噛む
SUBTITLE:--Zutomayo/Jujutsu Kaisen
SUBTITLEJA:ずっと真夜中でいいのに。
BPM:130
WAVE:Byoushin wo Kamu.ogg
OFFSET:-7.511
DEMOSTART:74.616

COURSE:Oni
LEVEL:8
BALLOON:17
SCOREINIT:760
SCOREDIFF:215
#START
2000200220202022,
2002202200222020,
11111111,
00000130,
1011210102102011,
1211200102102022,
1011210102102010,
2210102201102022,
1011210102102011,
1211200102102022,
1012110102102011,
1040400302222222,
1001201010010020,
1010201102112110,
1020102210211010,
1001201000102010,
1001201010010020,
1010201102112110,
1010201010111020,
100200200100000222200200,
1001201010010020,
1011221122102110,
1022102010221010,
1022202102221022,
1011201010010020,
1011201102112110,
21212221,
0010222011101000,
1010111022101010,
0010101022101020,
1001201010221020,
7000000000000800,
1010111022101020,
30323230,
1010101010111111,
2000000000001111,
1010201200002000,
3001221030012210,
3000300030122210,
1011202012202020,
1022112102102210,
3001221030012210,
3000400040122210,
1010200120122110,
1000000020101110,
5,
000008000000000000000000000000000000000000000000,
#END

COURSE:Hard
LEVEL:5
BALLOON:13
SCOREINIT:4190
SCOREDIFF:
#START
20020020,
2002,
1111,
,
#GOGOSTART
1000100100102000,
1000100100102000,
1000100100102000,
2000100200102000,
1000100100102000,
1000100100102000,
1000100100102010,
500000000000000000000000000008000000000000000000,
#GOGOEND
1000201010010020,
1000201100102000,
12101210,
10210022,
1000201010010020,
1000201100102000,
11101112,
12210222,
1000201010010020,
1000101100102000,
12101210,
10210222,
1000201010010020,
1000101100102000,
22202221,
0020002011101000,
1000100011101010,
0010100011101020,
1001201010201020,
70000008,
1000100011101020,
30323230,
11111111,
4000000000000022,
2002,
#GOGOSTART
30113011,
30303002,
11102221,
0010101000101110,
30113011,
30404022,
1010200110101110,
10000110,
5,
000008000000000000000000000000000000000000000000,
#GOGOEND
0,
#END

COURSE:Normal
LEVEL:4
BALLOON:7,7,9
SCOREINIT:8890
SCOREDIFF:
#START
1,
1,
1010,
,
#GOGOSTART
1000000100000000,
1000000100000000,
1000000100000000,
2202,
1000000100000000,
1000000100000000,
1000000100000000,
500000000000000000000000000008000000000000000000,
#GOGOEND
10010000,
10010000,
10101110,
1,
10010000,
10010000,
10111017,
0080,
10010000,
10010000,
20202220,
2,
10010000,
10010000,
20222027,
0080,
10001001,
01001000,
1111,
7008,
1010,
3330,
11111010,
4,
2,
#GOGOSTART
3131,
3330,
11102022,
01110110,
3131,
3440,
11102011,
1001,
5,
000008000000000000000000000000000000000000000000,
#GOGOEND
0,
#END

COURSE:Easy
LEVEL:2
BALLOON:5,5,5
SCOREINIT:15570
SCOREDIFF:
#START
2,
,
1010,
,
#GOGOSTART
1,
2,
1,
2200,
1,
2,
1,
500000080000,
#GOGOEND
1,
1,
1010,
1,
1,
1,
10001007,
0080,
1,
1,
2020,
2,
1,
1,
20002007,
0080,
10001001,
0010,
1010,
7008,
1010,
3330,
1110,
4,
2,
#GOGOSTART
3030,
3330,
1110,
1010,
3030,
4440,
1110,
1,
5,
000008000000000000000000000000000000000000000000,
#GOGOEND
0,
#END
