//TJADB Project
TITLE:waitin’ for u
TITLEJA:waitin' for u
SUBTITLE:--Jun Kuroda
SUBTITLEJA:Jun Kuroda
BPM:180
WAVE:waitin for u.ogg
OFFSET:-1.599
DEMOSTART:55.765

COURSE:Oni
LEVEL:10
BALLOON:10,5
SCOREINIT:430
SCOREDIFF:98
#START
#BARLINEOFF
#MEASURE 5/8
1120102030,
#BARLINEON
#MEASURE 4/4
0010201120102010,
2110201120201020,
0010201120111020,
0022201120102030,
0010201120102010,
2110201120201020,
0010201120111020,
0022211122112120,
0010201120102010,
2110201120201020,
0010201120111020,
1122201022112030,
0010201120102010,
2110201120201020,
30030030,
202020200200101010100100200200100100200010001000,
1021202011211020,
0012102012221020,
000000100000200000100000200100200000000000101010,
1020101021112010,
0020102011211020,
1020102012221020,
101010100000200000101010100000200000200000100100,
1020201012101020,
1021202011211020,
0012102012221020,
000000100000200000100000200100200000100000101010,
1020101021112010,
0010102011211020,
1020102012221020,
0222122022101020,
0022102021102000,
#SCROLL 0.5
4022,
20220111,
2212,
200000000000200000000000
#SCROLL 4
500000000008000000000000,
#SCROLL 1
30230223,
202020200200101010100100200200100100200010001000,
1010201011201122,
102011221210
#SCROLL 2
4000,
#SCROLL 1
#GOGOSTART
1110202012221020,
0020102111201020,
2220101022122010,
2010201121102010,
1110202010112210,
1010201000221120,
200000200200100000202020100000200000100000100000,
1012202211111111,
1011202011211020,
0010201112221020,
3303030
#SCROLL 2
4,
#SCROLL 1
000000200000100000200000200000200200202020200200,
1110201110201020,
0012101020212000,
11111111,
100100200100200100200200
#SCROLL 4
500000000008000000000000,
#GOGOEND
#SCROLL 0.5
22,
22,
22,
2222,
22,
22,
7008,
2000202010201122,
#SCROLL 0.75
10202022,
1022100010002020,
10112010,
2020201020221111,
#SCROLL 0.9
10101012,
#SCROLL 1
10101212,
#SCROLL 1.1
11221122,
#SCROLL 1.2
1020102070008000,
#SCROLL 0.5
20012212,
020201
#SCROLL 2
40,
#MEASURE 4/4
#SCROLL 1
#GOGOSTART
2220101022122010,
2010201121102010,
1110202010112210,
1010201000221120,
200000200200100000202020100000200000100000101010,
2012202212111222,
1011202011211020,
0010201112221020,
330404
#SCROLL 2
03,
#SCROLL 1
000000200000200000200000200000200200202020200200,
1120201220201020,
0011221022112210,
11111111,
200200100100200200100200
#SCROLL 4
500000000000000008000000,
#GOGOEND
#END

COURSE:Hard
LEVEL:6
BALLOON:10,8
#START
#MEASURE 5/8
#BARLINEOFF
00003,
#BARLINEON
#MEASURE 4/4
01201020,
10102201,
01201021,
0010201110102030,
01201020,
10102201,
01201021,
0011102011102020,
01201020,
10102201,
01201021,
01211123,
01201020,
10102212,
30030030,
7008,
12201012,
01221012,
00102201,
02011212,
01221212,
10220112,
10210201,
02011122,
12201012,
01221012,
00101211,
02021222,
01221122,
11210012,
01112212,
02020000,
#SCROLL 0.5
4022,
20220000,
1122,
1212,
#SCROLL 1
30030003,
00011220,
10201122,
1010202011104000,
#GOGOSTART
1000201010111020,
01010212,
1000200010111000,
21010212,
1010001000222020,
11210212,
11010202,
0010001000111020,
1000201010111020,
00201120,
33030304,
0222,
10210212,
01012020,
5,
000000000000000000000008000000000000000000000000,
#GOGOEND
#SCROLL 0.5
22,
22,
22,
2222,
22,
22,
22,
10221020,
#SCROLL 0.75
1212,
1022202010002020,
10221011,
22212212,
#SCROLL 0.9
1112,
#SCROLL 1
1112,
#SCROLL 1.1
1112,
#SCROLL 1.2
7008,
#SCROLL 0.5
20001022,
02010040,
#GOGOSTART
#SCROLL 1
1000200010111000,
21010212,
1010001000222020,
11210212,
11010202,
0010001000111020,
1000201010111020,
00201120,
33040403,
0222,
10210212,
01012020,
500000000000000000000000000008000000100000000000,
100000100000100000100000
#SCROLL 4
500000000000000008000000,
#GOGOEND
#SCROLL 1
,
#END

COURSE:Normal
LEVEL:6
BALLOON:6,6,6,5,6
#START
#MEASURE 5/8
#BARLINEOFF
00003,
#BARLINEON
#MEASURE 4/4
0111,
10102001,
00101011,
00202003,
0111,
10102001,
00101011,
07000008,
0111,
10102001,
00101011,
00202003,
0111,
1120,
30030030,
7008,
1211,
0112,
00101101,
01010110,
0111,
1202,
10110101,
00010110,
1211,
0112,
00101101,
01020200,
0111,
10200022,
00101011,
02020000,
#SCROLL 0.5
4,
2,
22,
2,
#SCROLL 1
30030003,
,
1212,
1114,
#GOGOSTART
10101111,
01010000,
20201110,
11010000,
10010000,
20020000,
10010107,
08,
10101111,
0222,
30030304,
,
10010102,
01001010,
5,
000000000000000000000008000000000000000000000000,
#GOGOEND
#SCROLL 0.5
2,
2,
2,
22,
2,
2,
2,
1211,
#SCROLL 0.75
1212,
1221,
1211,
2200,
#SCROLL 0.9
1110,
#SCROLL 1
1110,
#SCROLL 1.1
1110,
#SCROLL 1.2
7008,
#SCROLL 0.5
20000002,
00020000,
#GOGOSTART
#SCROLL 1
10201110,
11010000,
10010000,
20020000,
10010107,
08,
10201111,
0222,
30040403,
,
10010202,
0011,
5,
000000000000000000000000000000000000000008000000,
#GOGOEND
,
#END

COURSE:Easy
LEVEL:5
BALLOON:5,5,5,5
SCOREINIT:620
SCOREDIFF:208
#START
#MEASURE 5/8
#BARLINEOFF
00003,
#BARLINEON
#MEASURE 4/4
01,
10002001,
00001001,
00101003,
01,
10002001,
00001001,
07000008,
0110,
10002001,
00001001,
00101003,
01,
12,
30030030,
70000800,
1011,
1011,
00100002,
00020000,
0101,
1101,
10010005,
000000000000000000000000000008000000000000000000,
1011,
1011,
00100002,
00020000,
0101,
1101,
00101005,
000000000000000000000000000008000000000000000000,
#SCROLL 0.5
4,
2,
22,
2,
#SCROLL 1
30030003,
,
11,
1114,
#GOGOSTART
10001101,
01010000,
1022,
11010000,
10010000,
10010000,
10010007,
08,
10001101,
0110,
30030004,
,
10010002,
01,
5,
000000000000000000000000000008000000000000000000,
#GOGOEND
#SCROLL 0.5
2,
2,
2,
22,
2,
2,
2,
1011,
#SCROLL 0.75
11,
1110,
11,
2200,
#SCROLL 0.9
11,
#SCROLL 1
11,
#SCROLL 1.1
11,
#SCROLL 1.2
3,
#SCROLL 0.5
20000002,
,
#GOGOSTART
#SCROLL 1
1022,
11010000,
10010000,
10010000,
10010007,
08,
10001011,
0110,
30030003,
,
10010002,
01,
5,
000000000000000000000000000000000000000008000000,
#GOGOEND
,
#END
