//TJADB Project
TITLE:Ruslan and Lyudmila Overture
TITLEJA:「ルスランとリュドミラ」序曲
SUBTITLE:--Mikhail Glinka
SUBTITLEJA:グリンカ)
BPM:161.89
WAVE:Ruslan and Lyudmila Overture.ogg
OFFSET:-2.054
DEMOSTART:23.061

COURSE:Oni
LEVEL:8
BALLOON:24
SCOREINIT:480
SCOREDIFF:110
#START
10111011,
#BPMCHANGE 158.37
#SCROLL 0.98
1011221122221122,
#BPMCHANGE 160.05
#SCROLL 1.01
10111011,
#BPMCHANGE 160.4
#SCROLL 0.99
1011221122221122,
#BPMCHANGE 160.17
10111011,
#BPMCHANGE 159.12
#SCROLL 1
1000112211112222,
#BPMCHANGE 160
1111222211112211,
2222111122221111,
2211221122111122,
12121212,
1000100110201120,
1110112211222000,
1020102110202020,
1011221010002000,
1000100110201120,
1110112211222000,
1020102110201000,
1011202022112000,
1122101020112011,
2020101120221122,
1000100020112011,
#BPMCHANGE 161.84
1020101120112222,
#BPMCHANGE 158.1
#SCROLL 1.01
22112211,
#BPMCHANGE 160.03
#SCROLL 0.99
22111112,
10121012,
1,
#BPMCHANGE 159.52
#SCROLL 1
1022102010102020,
1000221122111122,
#BPMCHANGE 162.61
#SCROLL 0.98
10111000,
#BPMCHANGE 161.04
#SCROLL 0.99
1000200220022002,
#BPMCHANGE 158.78
#SCROLL 1
2,
10111000,
#BPMCHANGE 159.81
2000200220022002,
#BPMCHANGE 161.23
#SCROLL 0.99
2,
#BPMCHANGE 158.6
#SCROLL 1
11201210,
#BPMCHANGE 159.26
2211112211111011,
11201210,
#BPMCHANGE 161.15
#SCROLL 0.99
2211112211111011,
#BPMCHANGE 162.13
#SCROLL 0.98
11201210,
#BPMCHANGE 158.69
#SCROLL 1
11201120,
#BPMCHANGE 160.09
#SCROLL 0.99
1202,
1202,
1202,
1212,
1202,
1202,
1212,
#BPMCHANGE 157.63
#SCROLL 1.01
1202,
#BPMCHANGE 160.13
#SCROLL 0.99
10022112,
11,
10022112,
1111,
10201221,
10201122,
1212,
11,
10201221,
10201122,
#BPMCHANGE 161.87
#SCROLL 0.98
1000100020002002,
#BPMCHANGE 160.09
#SCROLL 0.99
10222022,
2,
20222022,
2,
20222022,
#MEASURE 6/4
#BPMCHANGE 157.87
#SCROLL 1.01
2000
#BPMCHANGE 160
#SCROLL 1
00,
#MEASURE 4/4
1000100120001000,
1011221111221122,
1222,
10111020,
1000100220001000,
1022112210201020,
1010112010101120,
2010112010101120,
1000100220001000,
1022112210102020,
1010112010101120,
#BPMCHANGE 161
#SCROLL 0.99
2010112010101111,
#BPMCHANGE 180
#GOGOSTART
1000200110002001,
1000100220001001,
1000200110002001,
1000100220001001,
1000200110002001,
1000100220001000,
1000111030003040,
3000111030003040,
3000111030003040,
34343434,
3000001110222011,
1011221122112222,
10033333,
3000000030000011,
7,
,
8,
#END

COURSE:Hard
LEVEL:7
BALLOON:20,20
SCOREINIT:440
SCOREDIFF:120
#START
10111011,
#BPMCHANGE 158.405
1011101110101000,
#BPMCHANGE 160.87
10111011,
1011101110101000,
#BPMCHANGE 158.41
10111011,
#BPMCHANGE 160
1000111010001110,
1000111010111020,
22112211,
2020101022201110,
3,
1000100110000010,
1110111011111000,
1020002220102010,
1011111010000000,
1000100110000010,
1110111011111000,
1020002220102000,
1011100010111000,
1011100010111011,
1010101110101110,
1000100010111011,
1010101110101110,
1,
00000012,
10121012,
1,
1011101011101110,
1000111011101110,
#BPMCHANGE 162.55
10333000,
#BPMCHANGE 160.143
2000200220022002,
#BPMCHANGE 160.144
2,
30111000,
#BPMCHANGE 157.112
2000200220022002,
#BPMCHANGE 161.23
2,
#BPMCHANGE 158.602
11201120,
#BPMCHANGE 159.706
500000000000000000000000000000000008000000000000,
11201120,
#BPMCHANGE 160.25
500000000000000000000000000000000008000000000000,
#BPMCHANGE 162.132
11201120,
#BPMCHANGE 158.707
11201120,
#BPMCHANGE 160.095
1202,
1202,
1202,
1212,
1202,
1202,
1212,
#BPMCHANGE 157.634
1202,
#BPMCHANGE 160.135
10012212,
11,
10012212,
1110,
10202112,
10202112,
1212,
11,
10202112,
10202112,
#BPMCHANGE 161.855
1111,
#BPMCHANGE 160.092
10222022,
2,
20222022,
2,
20222022,
#BPMCHANGE 157.869
#MEASURE 6/4
20
#BPMCHANGE 160
0,
#MEASURE 4/4
1000100110000000,
0010111010111010,
1222,
10111020,
1000100110000000,
2011101022201010,
21121112,
11,
1000100110000000,
2011101020201010,
21122112,
#BPMCHANGE 161
11,//77
#BPMCHANGE 180
#GOGOSTART
1000200110002001,
1000100220001001,
1000200110002001,
1000100220001001,
1000200110002001,
1000100220001000,
10113034,
30113034,
30113034,
34343434,
7,
00000008,
00033333,
3000000030000011,
7,
00000008,
,
,
,
#END

COURSE:Normal
LEVEL:5
BALLOON:14,14
SCOREINIT:720
SCOREDIFF:160
#START
10111010,
#BPMCHANGE 158.405
3,
#BPMCHANGE 160.87
10111010,
3,
#BPMCHANGE 158.41
10111010,
#BPMCHANGE 160
3101,
0101,
22,
2021,
1,
1110,
10101110,
1011,
10111000,
1110,
10101110,
10001110,
1212,
1011,
11101000,
1011,
11101000,
1,
0001,
11,
1,
1011,
1011,
#BPMCHANGE 162.55
10111000,
#BPMCHANGE 160.143
2022,
#BPMCHANGE 160.144
22,
3,
#BPMCHANGE 157.112
2022,
#BPMCHANGE 161.23
22,
#BPMCHANGE 158.602
11101110,
#BPMCHANGE 159.706
500000000000000000000000000000000008000000000000,
11101110,
#BPMCHANGE 160.25
500000000000000000000000000000000008000000000000,
#BPMCHANGE 162.132
11101110,
#BPMCHANGE 158.707
11,
#BPMCHANGE 160.095
1202,
1202,
1202,
12,
1202,
1202,
1202,
#BPMCHANGE 157.634
12,
#BPMCHANGE 160.135
1011,
12,
1011,
1110,
10000111,
10000111,
1,
1,
10000111,
10000111,
#BPMCHANGE 161.855
11,
#BPMCHANGE 160.092
20222020,
2,
20222020,
2,
20222020,
#BPMCHANGE 157.869
#MEASURE 6/4
20
#BPMCHANGE 160
0,
#MEASURE 4/4
1110,
10101011,
1,
,
1110,
10101110,
5,
000000000000000000000000000000000008000000000000,
1110,
10101110,
5,
#BPMCHANGE 161
000000000000000000000000000000000008000000000000,//77
#BPMCHANGE 180
#GOGOSTART
1212,
11,
1212,
11,
1212,
11,
1033,
3033,
3033,
3333,
7,
,
80011010,
13,
9,
09,
8,
,
,
#END

COURSE:Easy
LEVEL:3
BALLOON:12,12
SCOREINIT:650
SCOREDIFF:170
#START
11,
#BPMCHANGE 158.405
3,
#BPMCHANGE 160.87
11,
3,
#BPMCHANGE 158.41
11,
#BPMCHANGE 160
3,
,
,
,
,
11,
1110,
1011,
11,
11,
1110,
1011,
11,
1011,
1110,
0011,
1110,
,
0001,
11,
1,
1011,
1011,
#BPMCHANGE 162.55
1,
#BPMCHANGE 160.143
2,
#BPMCHANGE 160.144
22,
3,
#BPMCHANGE 157.112
2,
#BPMCHANGE 161.23
22,
#BPMCHANGE 158.602
11,
#BPMCHANGE 159.706
500000000000000000000000000008000000000000000000,
11,
#BPMCHANGE 160.25
500000000000000000000000000008000000000000000000,
#BPMCHANGE 162.132
11,
#BPMCHANGE 158.707
11,
#BPMCHANGE 160.095
1001,
1001,
1001,
12,
1001,
1001,
1001,
#BPMCHANGE 157.634
12,
#BPMCHANGE 160.135
12,
12,
12,
1110,
1001,
1001,
12,
12,
1001,
1001,
#BPMCHANGE 161.855
11,
#BPMCHANGE 160.092
2022,
2,
2022,
2,
2022,
#BPMCHANGE 157.869
#MEASURE 6/4
20
#BPMCHANGE 160
0,
#MEASURE 4/4
11,
1110,
1,
,
11,
1110,
5,
000000000000000000000000000008000000000000000000,
11,
1110,
5,
#BPMCHANGE 161
000000000000000000000000000008000000000000000000,//77
#BPMCHANGE 180
#GOGOSTART
12,
11,
12,
11,
12,
11,
1,
3,
3,
33,
7,
00000008,
0011,
13,
9,
09,
8,
,
,
#END
