//TJADB Project
TITLE:Zero no Symphony
TITLEJA:零の交響曲
SUBTITLE:--Kyo feat. Sariyajin
SUBTITLEJA:feat.サリヤ人
BPM:188
WAVE:Zero no Symphony.ogg
OFFSET:-1.410
DEMOSTART:42.074

COURSE:Edit
LEVEL:10
SCOREINIT:380
SCOREDIFF:93
#START
1111201111112011,
1111201112112012,
1111201111112011,
1210202212102022,
1111201111112011,
1111201112112012,
1111202212102030,
0020002210100000,
1000100010001011,
11211211,
1000100010001011,
1010201010201011,
1000100010001011,
11211211,
1000100010201011,
2010102011112000,
3000201110102011,
1010201210102010,
1000201110102011,
1010201210102022,
1000201110102012,
1010201110102012,
1010201211102010,
0010221022102211,
10012021,
0010201120102010,
10012021,
0010201120122210,
1022221022221022,
2210222210201011,
1020201020221010,
0110110
#GOGOSTART
3,
0011201022112010,
0010201012112010,
0011201022112010,
0010201012112030,
0011201011112030,
0011201012112030,
0010201112102011,
1210201211222030,
0011201022112010,
0010201012112010,
0011201022112010,
0010201012112030,
0011201011112030,
0011201012112030,
0010201112102011,
1210201211222010,
1111201112112012,
1111201112112022,
1111201112112012,
1111201112112022,
12230304,
#GOGOEND
,
2010102010102011,
1122112221121122,
#GOGOSTART
5,
000000000000000000000000000000000008000000200200,
100000100000100000200000100200200000200000102020,
2020101202100010,
000200200200100100100000100100200200101020200000,
202000101000202000101000202000101000202000500000,
000000000008000000100100100200200100100200200100,
12211222202000
#GOGOEND
30,
00202023,
03002203,
00202222,
10001123,
0000102010101022,
1020101011221040,
0022221222221222,
22122222111010
#GOGOSTART
30,
0011201022112010,
0010201012112010,
0011201022112010,
0010201012112030,
0011201011112030,
0011201012112030,
0010201112102011,
1210201211222010,
1111201112112012,
1111201112112022,
1111201112112012,
1111201112112022,
12230304,
#GOGOEND
,
#GOGOSTART
5,
000000000000000008000000200200200000100000500000,
000000000000000008000000200200100100200200100100,
2212121122122111,
500000000008000000100000200000100000200000100000,
200200100000200200100000202020100000200000500000,
000000000008000000100200100200100200200000300000,
000000100200200000102020200000500000000008000000,
300000300000000000400000400000000000600000000008,
0010202210101050,
,
,
,
000000000000000000000000000000000000000000000008,
#GOGOEND
#END

COURSE:Oni
LEVEL:8
SCOREINIT:470
SCOREDIFF:110
#START
1010201110102011,
1010201111102000,
1010201110102011,
1010202211202000,
1010201110102011,
1010201111102000,
1010201110102030,
02021100,
10101011,
11211211,
10101011,
1010201010201011,
10101011,
11211211,
10101011,
2010102011102000,
3000200010102011,
1010201110102010,
1000200010102011,
1010201110102022,
1000201110102012,
1000201110102012,
1000201110102010,
0010221022101110,
30012011,
02112211,
10012011,
0020101020112210,
1022201022201022,
2010222010201010,
500000000000000000000008000000400000400000600000,
000000000000000000000008000000000000000000
#GOGOSTART
300000,
0010201022102010,
0010200011202010,
0010201022102010,
0010200011202030,
0010201011102030,
0010201011112050,
,
000000000000000000000000000008000000000000300000,
0010201022102010,
0010200011202010,
0010201022102010,
0010200011202030,
0010201011102030,
0010201011112050,
,
000008000000000000000000200000000200000000200200,
1010201110102012,
1010201110102022,
1010201110102012,
1010201110102022,
12230304,
#GOGOEND
,
21121121,
1020101020101111,
#GOGOSTART
5,
000000000000000000000000000000000008000000200200,
1010102010102011,
2010221000100050,
000000000000000008000000100100100000200200200000,
2220111022111050,
000000000008000000100100200200100000200200200000,
11102220404000
#GOGOEND
30,
00000003,
03000003,
,
10001023,
00101012,
1000102011112030,
0022201022201022,
20102220101010
#GOGOSTART
30,
0010201022102010,
0010200011202010,
0010201022102010,
0010200011202030,
0010201011102030,
0010201011112050,
,
000008000000000000000000200000000200000000200200,
1010201110102012,
1010201110102022,
1010201110102012,
1010201110102022,
12230304,
#GOGOEND
,
#GOGOSTART
5,
000000000000000008000000200000200000100000500000,
000000000000000008000000200200200000100100100000,
2220111022201110,
500000000008000000100000200000100000200000100000,
2210221022112050,
000000000008000000100100200000100000200000300000,
000000100000200000100100200000500000000008000000,
33044030,
0010202210101050,
,
,
,
000000000000000000000000000000000000000000000008,
#GOGOEND
#END

COURSE:Hard
LEVEL:6
#START
11210150,
000000000000000000000000000000000000000008000000,
11210121,
1020001110200000,
11210150,
000000000000000000000008000000100000200000200000,
11210126,
000000000000000000000000000000000008000000000000,
10101011,
10101011,
10101011,
10101212,
10101011,
10101011,
10101011,
2010102011102000,
10201121,
1010200011102000,
10201121,
1010200011102000,
1000200011102000,
1000200011102000,
500000000000000000000000000000000000000008000000,
,
10012011,
02112211,
10012011,
0020101020222000,
30030030,
03003030,
500000000000000000000008000000600000000000000000,
000000000000000000000008000000000000000000
#GOGOSTART
300000,
01201121,
0010200011102010,
01201121,
0010200011102030,
01201123,
0010200022202050,
,
000000000000000000000000000008000000000000300000,
01201121,
0010200011102010,
01201121,
0010200011102030,
01201123,
0010200022202050,
,
000008000000000000000000200000000200000000200000,
11221022,
11221021,
11221022,
11221021,
10330304,
#GOGOEND
,
21121121,
12112111,
#GOGOSTART
30201121,
01210121,
10201121,
01210125,
8,
2220111022111050,
000000000000000000000008000000000000000000600000,
000000000000000000000008000000000000000000
#GOGOEND
300000,
00000003,
03000003,
,
10001023,
00101012,
1000100022202050,
,
000000000000000000000000000008000000000000
#GOGOSTART
300000,
01201121,
0010200011102010,
01201121,
0010200011102030,
01201123,
0010200022202050,
,
000008000000000000000000200000000200000000200000,
11221022,
11221021,
11221022,
11221021,
10330304,
#GOGOEND
,
#GOGOSTART
11210150,
000000000000000000000000000000000000000008000000,
11210121,
1020001110200000,
11210150,
000000000000000000000008000000100000200000200000,
11210126,
000000000000000000000000000000000008000000000000,
33044030,
0010201110101050,
,
,
,
000000000000000000000000000000000000000000000008,
#GOGOEND
,
,
#END

COURSE:Normal
LEVEL:4
BALLOON:15
#START
10010050,
000000000000000000000000000000000008000000000000,
10010001,
01020200,
10010050,
000000000000000000000000000008000000000000000000,
10010006,
000000000000000000000000000000000008000000000000,
11,
1110,
11,
1110,
11,
1122,
11,
,
11,
1212,
11,
1212,
11,
1212,
500000000000000000000000000000000000000008000000,
,
10001011,
01100000,
20002022,
02200000,
30030030,
03003030,
6,
000000000000000000000008000000000000000000
#GOGOSTART
100000,
00101011,
01001101,
00101101,
00001101,
00101002,
00202205,
,
000000000000000000000000000008000000000000100000,
00101011,
01001101,
00101101,
00001101,
00101002,
00202205,
,
000008000000000000000000000000000000000000000000,
10111000,
10111000,
20222000,
20222000,
30030304,
#GOGOEND
,
7,
0008,
#GOGOSTART
10001001,
01010000,
20002002,
02020005,
,
000000000000000000000008000000000000000000600000,
,
000000000000000000000008000000000000000000
#GOGOEND
300000,
00000003,
03000003,
,
10001001,
00101002,
00202205,
,
000000000000000000000000000008000000000000
#GOGOSTART
100000,
00101011,
01001101,
00101101,
00001101,
00101002,
00202205,
,
000008000000000000000000000000000000000000000000,
10111000,
10111000,
20222000,
20222000,
30030304,
#GOGOEND
,
#GOGOSTART
10010050,
000000000000000000000000000000000008000000000000,
10010001,
01020200,
10010050,
000000000000000000000000000008000000000000000000,
10010006,
000000000000000000000000000000000008000000000000,
30030040,
00101115,
,
,
,
000000000000000000000000000000000000000000000008,
#GOGOEND
,
,
#END

COURSE:Easy
LEVEL:3
BALLOON:12
#START
10010050,
000000000000000000000000000008000000000000000000,
10010001,
01010100,
10010050,
000000000000000000000000000008000000000000000000,
10010006,
000000000000000000000000000008000000000000000000,
1,
11,
1,
,
2,
22,
2,
,
11,
1110,
11,
1110,
22,
2225,
000000000000000000000000000000000000000008000000,
,
10001001,
01000000,
10001001,
01000000,
30030030,
03003000,
6,
000000000000000000000008000000000000000000
#GOGOSTART
100000,
00101001,
00001001,
00101001,
00001001,
00101001,
00101005,
,
000000000000000000000008000000000000000000100000,
00101001,
00001001,
00101001,
00001001,
00101001,
00101005,
,
000008000000000000000000000000000000000000000000,
11,
1110,
22,
2220,
30030303,
#GOGOEND
,
7,
0008,
#GOGOSTART
10001001,
01010000,
10001001,
01010005,
,
000000000000000000000008000000000000000000600000,
,
000000000000000000000008000000000000000000
#GOGOEND
300000,
00000003,
03000003,
,
10001001,
00101001,
00101005,
,
000000000000000000000008000000000000000000
#GOGOSTART
100000,
00101001,
00001001,
00101001,
00001001,
00101001,
00101005,
,
000008000000000000000000000000000000000000000000,
11,
1110,
22,
2220,
30030303,
#GOGOEND
,
#GOGOSTART
10010050,
000000000000000000000000000008000000000000000000,
10010001,
01010100,
10010050,
000000000000000000000000000008000000000000000000,
10010006,
000000000000000000000000000008000000000000000000,
30030040,
00101005,
,
,
,
000000000000000000000000000000000000000000000008,
#GOGOEND
,
,
#END
