//TJADB Project
TITLE:Dokadoka
TITLEJA:弩蚊怒夏
SUBTITLE:--Katsuro Tajima -Summer Third Movement Rendition-
BPM:190
WAVE:Dokadoka.ogg
OFFSET:-1.527
DEMOSTART:10.095

COURSE:Oni
LEVEL:10
BALLOON:10,10,10,10
SCOREINIT:340
SCOREDIFF:70
#START
#MEASURE 3/4
3,
3,
3,
3,
000000001122,
112,
312,
312,
3,
#GOGOSTART
012211111111,
101120102010,
012211111111,
101120102010,
012211111111,
101120102010,
012211111111,
101120112010,
012211111111,
101120112010,
221120102010,
111211112000,
111211112000,
111211122000,
111211122000,
300333,
300333,
300333,
112121212121,
111211121112,
112121212121,
111211121112,
112121212121,
212121212121,
#GOGOEND
1,
000000001112,
100000000002,
022,
222,
201010101011,
200000111112,
111121112111,
112121112111,
111121212111,
200011221111,
112211121122,
111111221112,
102020102011,
102020102011,
102020102011,
122121,
#GOGOSTART
112211111111,
122111111111,
112211111111,
122111112212,
112211111111,
122111111111,
122111111111,
112211112212,
122111111111,
#GOGOEND
101110001000,
101110001000,
101110001000,
101110001000,
101110001121,
101110001112,
101110001211,
101110001212,
101110001000,
112211221122,
708,
112211221122,
708,
112211221122,
708,
708,
221122112121,
121020,
221122112121,
121020,
221122112121,
100011221212,
112121,
100000001112,
221222122211,
100000001112,
221222122211,
102,
222,
222,
222,
#GOGOSTART
122122121111,
112211111111,
122122121111,
122122111111,
122122121111,
122122111111,
122122121111,
122122111111,
112121112111,
111121112111,
112121112111,
211121112111,
211122222222,
111111111111,
111121212121,
111122222222,
122212221222,
111122222222,
122212221222,
500000000000000000000000000008000000,
211121112111,
211111111111,
211111111111,
122212221222,
#MEASURE 5/4
11112222222200000000,
#GOGOEND
3030
#BPMCHANGE 119
#SCROLL 1.596638655462185
0,
#BARLINEOFF
#MEASURE 10/4
#BPMCHANGE 293
#SCROLL 0.4863481228668942
43
#BPMCHANGE 274
#SCROLL 0.5200729927007299
3
#BPMCHANGE 282
#SCROLL 0.5053191489361701
4
#BPMCHANGE 272
#SCROLL 0.5238970588235294
3
#BPMCHANGE 91.5
#SCROLL 1.557377049180328
3
#BPMCHANGE 39
#SCROLL 3.6538461538461533
4
#BPMCHANGE 60.5
#SCROLL 2.355371900826446
3
#BPMCHANGE 50
#SCROLL 2.8499999999999996
3
#BPMCHANGE 49.95
#SCROLL 2.8528528528528527
3,
#GOGOSTART
#BARLINEON
#MEASURE 3/4
#BPMCHANGE 220
#SCROLL 1
300022221111,
221211212222,
112111111111,
150,
,
000000000000000000000008000000000000,
#GOGOEND
3,
#END

COURSE:Hard
LEVEL:8
BALLOON:5,5,5,5
SCOREINIT:390
SCOREDIFF:110
#START
#MEASURE 3/4
3,
3,
3,
3,
000000001111,
112,
312,
312,
3,//9
#GOGOSTART
,
111121,
122,
111121,
122,
111121,
122,
111121,
122,
111121,
122,
101110111000,
101110111000,
101110111000,
101110111000,
300333,
300333,
300333,
302102,
102112,
102102,
102122,
102122,
102122,//33
#GOGOEND
130,
000000001111,
100000000002,
022,
222,
201010101011,
100000111002,
022,
022020,
101020202011,
1,
222,
222220,
102120,
102120,
102120,
212121,//50
#GOGOSTART
101110111000,
101110111000,
101110111000,
101110111000,
101110111000,
101110111011,
101110111011,
101110111011,
101110111011,//59
#GOGOEND
111,
111010,
111010,
111010,
101010001011,
101010001011,
101010001011,
101010001011,
111010,
102220222022,
708,
102220222022,
708,
102220222022,
708,
708,
212121,
112,
212121,
112,
212121,
112,
112121,
101,
101110111011,
101,
101110111011,
102,
222,
222,
222,//90
#GOGOSTART
101110111000,
101110111000,
101110111000,
101110111000,
101110111011,
101110111022,
201110111011,
101110111022,
212,
112,
122020,
222,
230,
,
100010111011,
1,
222,
220,
222,
220,
101110111011,
1,
1,
101110111022,
201,
00000000
#GOGOEND
3000,
#BARLINEOFF
030,//117
000
#BPMCHANGE 160
0
#BPMCHANGE 140
0
#BPMCHANGE 120
0,
0
#BPMCHANGE 100
00,
#BPMCHANGE 95
0,
#BPMCHANGE 50
3000
#BPMCHANGE 100
30000000,//121
#GOGOSTART
#BPMCHANGE 220
#BARLINEON
302211,
221122,
111111,
150,
,
000000000000000000000008000000000000,//127
#GOGOEND
3,
,
#END

COURSE:Normal
LEVEL:7
BALLOON:30,3,3,3,3
SCOREINIT:540
SCOREDIFF:150
#START
#MEASURE 3/4
3,
3,
3,
3,
,
312,
312,
312,
3,//9
#GOGOSTART
,
101110,
1,
101110,
1,
101110,
1,
101110,
1,
101110,
122,
111110,
111110,
111110,
111110,
300333,
300333,
300333,
9,
,
,
,
09,
,//33
#GOGOEND
8,
,
,
122,
222,
201011,
1,
222,
022,
102220,
1,
222,
222,
112,
112,
112,
112,//50
#GOGOSTART
101110,
111110,
101110,
111110,
101110,
111110,
101110,
111110,
111110,//59
#GOGOEND
1,
1,
1,
1,
101,
101,
101,
101,
101,
112,
708,
112,
708,
112,
708,
708,
222,
1,
222,
1,
222,
1,
122,
101,
222,
101,
222,
1,
222,
222,
222,//90
#GOGOSTART
101110,
111110,
101110,
111110,
101110,
111111,
111111,
111111,
112,
112,
112,
222,
2,
,
011,
1,
222,
220,
222,
220,
111,
1,
1,
111,
21,
#BARLINEOFF
00000000
#GOGOEND
3000,//115
030,
000
#BPMCHANGE 160
0
#BPMCHANGE 140
0
#BPMCHANGE 120
0,
0
#BPMCHANGE 100
00,
#BPMCHANGE 95
0,
#BPMCHANGE 50
3
#BPMCHANGE 100
30,//121
#GOGOSTART
#BPMCHANGE 220
#BARLINEON
301111,
111111,
111111,
150,
0,
000000000000000000000000000000000008,//127
#GOGOEND
,
,
#END

COURSE:Easy
LEVEL:5
BALLOON:20,2,2,2,2
SCOREINIT:450
SCOREDIFF:120
#START
#MEASURE 3/4
3,
3,
3,
3,
,
3,
3,
3,
3,//9
#GOGOSTART
,
111,
1,
111,
1,
111,
1,
111,
1,
111,
1,
101,
101,
101,
101,
3,
3,
3,
9,
,
,
,
09,
,//33
#GOGOEND
8,
,
3,
111,
2,
222,
3,
111,
2,
222,
3,
222,
222,
102,
102,
102,
102,//50
#GOGOSTART
111,
111,
111,
111,
111,
111,
111,
111,
111,//59
#GOGOEND
1,
1,
1,
1,
101,
101,
101,
101,
101,
102,
708,
102,
708,
102,
708,
708,
202,
1,
202,
1,
202,
1,
122,
1,
122,
1,
122,
1,
,
,
,//90
#GOGOSTART
111,
111,
111,
111,
111,
111,
111,
111,
112,
112,
112,
112,
2,
,
011,
1,
222,
220,
222,
220,
111,
1,
1,
111,
#BARLINEOFF
5,
000000000008000000000000
#GOGOEND
600000000000,//115
000000000008000000000000000000000000,
000
#BPMCHANGE 160
0
#BPMCHANGE 140
0
#BPMCHANGE 120
0,
0
#BPMCHANGE 100
00,
#BPMCHANGE 95
0,
#BPMCHANGE 50
0
#BPMCHANGE 100
00,//121
#GOGOSTART
#BPMCHANGE 220
#BARLINEON
111,
111,
333,
350,
,
000000000000000000000000000000000008,//127
#GOGOEND
,
,
#END
