//TJADB Project
TITLE:Genkai Creator Ouenka
TITLEJA:限界クリエイター応援歌
SUBTITLE:--Yukiko Miyage feat. Suzune
BPM:170
WAVE:Genkai Creator Ouenka.ogg
OFFSET:-1.524
DEMOSTART:27.979

COURSE:Oni
LEVEL:8
BALLOON:32,12,10,10,3,3,20
SCOREINIT:1530
SCOREDIFF:0
#START
#SCROLL 1.5
1111100011111000,
#SCROLL 2
1111111111111111,
#SCROLL 1
10221120,
10221122,
12121212,
1000201010111010,
10221120,
10221122,
12121212,
1000201010111111,
1000001020000022,
1001101020000020,
10012003,
0000300030112022,
10210121,
10210122,
10210121,
7,
0008,//19
#GOGOSTART
30401120,
1010202010102222,
10210112,
0020002000221111,
2011101020102010,
2011101020102020,
11212112,
0010201020111111,
2010201120102011,
2010201120102010,
2010201120102011,
2010201120112020,
11212112,
0010200010112022,//33
#GOGOEND
7008,
,
12121212,
1020102010201011,
11211212,
11211212,
11211212,
600000000000000000000000000008000000000000000000,
1110201110102010,
1110201110102010,//43
#GOGOSTART
1404,
3434,//45
#GOGOEND
1110201110112010,
1110201110112010,//47
#GOGOSTART
10221022,
1122112211221010,//49
#GOGOEND
2210201110112010,
2210221110112010,//51
#GOGOSTART
70000840,
70000840,
78407840,
3333,//55
#GOGOEND
40221120,
11210122,
10221120,
1010201000112020,
10221120,
11210122,
10221121,
2010201000102011,//63
#GOGOSTART
21210121,
01210120,
10070000,
08,//67
#GOGOEND
3400,
2000002000002022,
20220114,
0040004010111111,
2021101020201010,
2021101020201020,
11212113,
0000300040001011,//75
#GOGOSTART
2010201120102011,
2010201120102011,
2010201120102011,
2010201120112020,
11212112,
0010200011102020,
1010202211201020,
0010202212102022,
11212112,
0010202210112022,
11212212,
1111201020211020,//87
#GOGOEND
10202111,
20211120,
2020102011221111,
22110040,
#END

COURSE:Hard
LEVEL:6
BALLOON:26,10,8,8,2,2,17
SCOREINIT:2160
SCOREDIFF:0
#START
#SCROLL 1.5
11101110,
#SCROLL 2
11111110,
#SCROLL 1
10201120,
10221120,
12101210,
1000200010111000,
10201120,
10221120,
12101210,
1000201010111000,
10012002,
10112002,
10012003,
0000300030001011,
10210120,
10210120,
10210120,
7,
0008,//19
#GOGOSTART
3212,
11201120,
10210112,
02020210,
1011101020002000,
1011101020002000,
11202012,
01202010,
21202120,
21202120,
21202120,
21202110,
11202012,
0010200010111000,//33
#GOGOEND
7008,
,
12101210,
12101211,
10210210,
10210210,
11210212,
600000000000000000000000000008000000000000000000,
10211120,
10211120,//43
#GOGOSTART
1404,
3434,//45
#GOGOEND
10211120,
10211120,//47
#GOGOSTART
10221022,
11212010,//49
#GOGOEND
20211120,
10211120,//51
#GOGOSTART
70000840,
70000840,
78407840,
3333,//55
#GOGOEND
40201120,
11210120,
10201120,
11210120,
10201120,
11210120,
10201121,
10210120,//63
#GOGOSTART
11110111,
01110110,
10070000,
08,//67
#GOGOEND
3400,
2000002000000022,
20220114,
04040300,
22112211,
22112211,
10202113,
0340,//75
#GOGOSTART
21202120,
21202120,
21202120,
21202110,
10202012,
01201120,
11201122,
01201122,
10202012,
0010200010111000,
11201212,
11211212,//87
#GOGOEND
10202011,
20201120,
2020101011101110,
22110040,
#END

COURSE:Normal
LEVEL:5
BALLOON:17,7,10,11
SCOREINIT:3080
SCOREDIFF:0
#START
#SCROLL 1.5
500000000008000000000000500000000008000000000000,
#SCROLL 2
500000000000000000000000000008000000000000000000,
#SCROLL 1
10101120,
10101110,
1111,
20010000,
10101120,
10101110,
1111,
200000000000000000500000000000000008000000000000,
10012000,
1120,
10012003,
0330,
1210,
1210,
1212,
7,
0008,//19
#GOGOSTART
3312,
10101120,
10200500,
000000000000000000000000000000000008000000000000,
11102020,
11102020,
10202005,
000000000000000000000008000000000000000000000000,
11101110,
11101000,
11101110,
11101000,
10202001,
0211,//33
#GOGOEND
7008,
,
11101110,
11101110,
10110110,
00220220,
00110110,
600000000000000000000000000008000000000000000000,
10210120,
10210120,//43
#GOGOSTART
1404,
0404,//45
#GOGOEND
10210120,
10210120,//47
#GOGOSTART
10222020,
1220,//49
#GOGOEND
10210120,
10210120,//51
#GOGOSTART
1114,
1114,
1414,
3333,//55
#GOGOEND
4212,
10210120,
1212,
10210120,
1212,
10210120,
9009,
8,//63
#GOGOSTART
1122,
10102220,
10070000,
08,//67
#GOGOEND
3300,
20000002,
20000004,
04040300,
22002200,
22002200,
10202003,
0340,//75
#GOGOSTART
11101110,
11101000,
11101110,
11101000,
10202001,
0211,
11101110,
22202220,
10202001,
0211,
11101110,
22202220,//87
#GOGOEND
1221,
2212,
20101110,
20010040,
#END

COURSE:Easy
LEVEL:3
BALLOON:14,5,8,9
SCOREINIT:4880
SCOREDIFF:0
#START
#SCROLL 1.5
500000000008000000000000500000000008000000000000,
#SCROLL 2
500000000000000000000000000008000000000000000000,
#SCROLL 1
11,
11,
1110,
10010000,
11,
11,
1110,
100000000000000000500000000000000008000000000000,
12,
12,
10002006,
000000000000000000000008000000000000000000000000,
11,
1110,
1111,
7,
0008,//19
#GOGOSTART
3300,
11,
10000500,
000000000000000000000000000000000008000000000000,
1110,
1110,
00202005,
000000000000000000000008000000000000000000000000,
1111,
1110,
1111,
1110,
0220,
0200,//33
#GOGOEND
7008,
,
1111,
1111,
2222,
1111,
2222,
600000000000000000000000000008000000000000000000,
1202,
1202,//43
#GOGOSTART
1404,
0404,//45
#GOGOEND
1202,
1202,//47
#GOGOSTART
12,
2220,//49
#GOGOEND
1202,
1202,//51
#GOGOSTART
0004,
0004,
0404,
600000000000000000000000000000000008000000000000,//55
#GOGOEND
1212,
1202,
1212,
1202,
1212,
1202,
9009,
8,//63
#GOGOSTART
1122,
1120,
10070000,
08,//67
#GOGOEND
3300,
2,
20000500,
000000000000000000000000000008000000000000000000,
22,
22,
00202003,
0330,//75
#GOGOSTART
1111,
1110,
1111,
1110,
0220,
0200,
1111,
2222,
1220,
0200,
1111,
2222,//87
#GOGOEND
1220,
2202,
2110,
500000000000000008000000000000000000400000000000,
#END
