//TJADB Project
TITLE:Rei Wadaiko
TITLEJA:令・和太鼓
SUBTITLE:--Hisui
SUBTITLEJA:翡翠
BPM:91
WAVE:Rei Wadaiko.ogg
OFFSET:-2.793
DEMOSTART:97.031

COURSE:Oni
LEVEL:8
BALLOON:5,4,4,4
SCOREINIT:520
SCOREDIFF:128
#START
#MEASURE 6/4
300010122000000020002000,
300011122000002020007080,
301120201101202020021020,
301120201101202220222020,
301120201101202020021020,
301120201202121250000080,
302210121202202011121210,
302210221021221210121020,
300000200200100000200200100000000200200020202020100020200020202020200020,
100000200000000200201010100000000200000000200000101010202020101010202020,
#MEASURE 3/4
10,
#BPMCHANGE 97
100000102020100000200100200000200200,
102020117080,
100000102020100000200100200000200200,
101120112020,
100000102020100000200100200000200200,
102020117080,
100000102020100000200100200000200200,
101120112020,
#BPMCHANGE 98
100000102020100000200100200000100200,
112020111020,
#BPMCHANGE 99
100000102020100000200020200200100200,
100000101010200000102000100020100000,
#BPMCHANGE 100
100000101020100000200200100000100200,
112020117080,
#BPMCHANGE 101
100000101020100000200200100200100200,
101112111210,
300000202020200000202020200000200000,
200000202020200000202020200000200000,
200000202020200000202020200000200000,
200000202020200000202020100200200000,
300000202020200000202020200000200000,
200000202020200000202020100000200000,
100000202020200000202020100000200000,
200000202020100000202020100200200000,
5,
000000000000000000000000000000008000,
#MEASURE 5/8
#BPMCHANGE 108
3020120202,
2021200200,
1020221101,
1011120201,
#GOGOSTART
1020121010,
1011122212,
1020121010,
1011121222,
100000200000100200101010200000,
1021122112,
1021120101,
1020222222,
#GOGOEND
#BPMCHANGE 105
#SCROLL 1.03
0111112222,
#GOGOSTART
#BPMCHANGE 109
#SCROLL 1
1120112020,
1020101211,
1120112020,
100000200000100000200200202020,
1010211012,
1012122112,
1120222210,
1122101112,
#BPMCHANGE 110
1110112121,
1011112121,
#GOGOEND
1011110101,
1020220200,
#BPMCHANGE 111
#SCROLL 0.99
1012110102,
#BPMCHANGE 112
#SCROLL 0.98
1012112121,
#BPMCHANGE 114
#SCROLL 0.96
1012110102,
#BPMCHANGE 115
1012112121,
#GOGOSTART
#BPMCHANGE 117
#SCROLL 0.94
1011220202,
#BPMCHANGE 118
#SCROLL 0.93
1011220202,
#GOGOEND
#BPMCHANGE 113
#SCROLL 0.97
0012220202,
#GOGOSTART
1020212102,
#BPMCHANGE 110
#SCROLL 1
1221221000,
#GOGOEND
#END

COURSE:Hard
LEVEL:7
BALLOON:18,26,6,6
SCOREINIT:580
SCOREDIFF:150
#START
#MEASURE 6/4
300010222000000020002000,
300020222000002020002000,
302220203002202020022020,
302220203002202220222020,
302220203002202020011020,
302220203002201050000080,
302220105000000000801020,
302022005000000080111020,
302022005000000000802220,
302002007000000000000080,
#MEASURE 3/4
00,
#BPMCHANGE 97
100020002020,
102020111000,
100020002020,
201110111020,
100020002020,
102020111000,
100020002020,
201110111020,
#BPMCHANGE 98
100020002020,
102020111000,
#BPMCHANGE 99
100020002020,
101110111020,
#BPMCHANGE 100
100020002010,
102020111000,
#BPMCHANGE 101
100020001010,
101110111010,
300020222020,
202220222020,
202220222020,
202220222020,
300020222020,
202220201020,
102220201020,
202010201020,
7,
000000000080,
#BPMCHANGE 108
#MEASURE 5/8
3000220202,
2022200200,
1020220201,
1020220201,
#GOGOSTART
1020111020,
1011102020,
1020111020,
1011102020,
1020111020,
1011102020,
1020110101,
1022202201,
#SCROLL 1.03
#BPMCHANGE 105
#GOGOEND
10,
#GOGOSTART
#SCROLL 1
#BPMCHANGE 109
1020111020,
1020101111,
1020111020,
1020102222,
2020111011,
1022222011,
1020111010,
1020111010,
#BPMCHANGE 110
1110110101,
1011110101,
#GOGOEND
1011110101,
1020220200,
#SCROLL 0.99
#BPMCHANGE 111
1011110100,
#SCROLL 0.98
#BPMCHANGE 112
1011110100,
#SCROLL 0.96
#BPMCHANGE 114
1011110100,
#BPMCHANGE 115
1011110200,
#GOGOSTART
#SCROLL 0.94
#BPMCHANGE 117
1011700800,
#SCROLL 0.93
#BPMCHANGE 118
1011700800,
#GOGOEND
#SCROLL 0.97
#BPMCHANGE 113
1022220200,
#GOGOSTART
3030111101,
#SCROLL 1
#BPMCHANGE 110
1003003000,
#GOGOEND
0,
0,
#MEASURE 4/4
0,
#END

COURSE:1
LEVEL:4
BALLOON:18,26,6
SCOREMODE:2
#START
#MEASURE 6/4
300010202000000020002000,
300020202000002020002000,
300020003000202020002000,
300020003000000020202000,
300020003000202020001000,
300020003000101030000000,
300020005000000000801000,
300020005000000000000080,
300020005000000000801000,
300000007000000000000080,
#MEASURE 3/4
00,
#BPMCHANGE 97
100020002020,
200020001000,
100020002020,
200020001000,
100020002020,
200020001000,
100020002020,
200010001000,
#BPMCHANGE 98
100020001010,
100020202000,
#BPMCHANGE 99
100020001010,
100020002000,
#BPMCHANGE 100
100020001010,
100020202000,
#BPMCHANGE 101
100020001010,
100010101000,
300020202000,
200020202000,
200020202000,
200020202000,
300020202000,
200020001000,
100020001000,
200010001000,
7,
000000000080,
#BPMCHANGE 108
#MEASURE 5/8
0000200020,
2000200200,
2000000000,
7000000080,
#GOGOSTART
1000101000,
1010002000,
1000101000,
1010002000,
1000101000,
1010002000,
1000100100,
5000000008,
#SCROLL 1.03
#BPMCHANGE 105
#GOGOEND
00,
#GOGOSTART
#SCROLL 1
#BPMCHANGE 109
1000101000,
1000101000,
2000202000,
2000202000,
1000101010,
1000202020,
2000100010,
1000001010,
#BPMCHANGE 110
6,
0000000008,
#GOGOEND
0000100100,
1000000000,
#SCROLL 0.99
#BPMCHANGE 111
1010100100,
#SCROLL 0.98
#BPMCHANGE 112
2020200200,
#SCROLL 0.96
#BPMCHANGE 114
1010100200,
#BPMCHANGE 115
2020200100,
#GOGOSTART
#SCROLL 0.94
#BPMCHANGE 117
3000600080,
#SCROLL 0.93
#BPMCHANGE 118
3000600008,
#GOGOEND
#SCROLL 0.97
#BPMCHANGE 113
0000200000,
#GOGOSTART
3030300300,
#SCROLL 1
#BPMCHANGE 110
3003003000,
#GOGOEND
0,
0,
#MEASURE 4/4
0,
#END

COURSE:0
LEVEL:4
BALLOON:14,4,4,4,4,16,4
SCOREMODE:2
#START
#MEASURE 6/4
300000002000000020000000,
300000002000000020000000,
300000003000000020000000,
300000003000000020000000,
300000003000000000001000,
300000003000000030000000,
300000005000000000800000,
300000005000000000800000,
300000005000000000800000,
300000007000000000000080,
#MEASURE 3/4
00,
#BPMCHANGE 97
500000800000,
100010001000,
500000800000,
200020002000,
500000800000,
100010001000,
500000800000,
200020002000,
#BPMCHANGE 98
700000800000,
100010001000,
#BPMCHANGE 99
700000800000,
200020002000,
#BPMCHANGE 100
700000800000,
100010001000,
#BPMCHANGE 101
700000800000,
200020002000,
400020002000,
0,
200020002000,
0,
400020002000,
000000001000,
100000001000,
000010001000,
7,
000000000080,
#BPMCHANGE 108
#MEASURE 5/8
3000000000,
0000200200,
2000000000,
7000000080,
#GOGOSTART
1000100000,
0000002000,
2000200000,
0000001000,
1000100000,
0000002000,
2000500000,
0000000008,
#SCROLL 1.03
#BPMCHANGE 105
#GOGOEND
00,
#GOGOSTART
#SCROLL 1
#BPMCHANGE 109
1000100000,
1000002000,
2000200000,
1000002000,
2000200000,
1000100000,
2000200000,
1000001000,
#BPMCHANGE 110
6,
0000000008,
#GOGOEND
0000000000,
0000000000,
#SCROLL 0.99
#BPMCHANGE 111
2000200000,
#SCROLL 0.98
#BPMCHANGE 112
2000200000,
#SCROLL 0.96
#BPMCHANGE 114
2000200000,
#BPMCHANGE 115
2000200000,
#GOGOSTART
#SCROLL 0.94
#BPMCHANGE 117
3000600080,
#SCROLL 0.93
#BPMCHANGE 118
3000600008,
#GOGOEND
#SCROLL 0.97
#BPMCHANGE 113
0000000000,
#GOGOSTART
3000300000,
#SCROLL 1
#BPMCHANGE 110
3003003000,
#GOGOEND
0,
0,
#MEASURE 4/4
0,
#END
