//TJADB Project
TITLE:Mute Sureba Iijan.
TITLEJA:ミュートすればいいじゃん。
SUBTITLE:--aiai
SUBTITLEJA:ぁぃぁぃ
BPM:182
WAVE:Mute Sureba Iijan..ogg
OFFSET:-2.044
DEMOSTART:44.221

COURSE:Oni
LEVEL:7
BALLOON:10,10,10,10,10,10,10,10
SCOREINIT:1860
SCOREDIFF:0
#START
1000111010002220,
11210222,
1000111010002220,
1010201000221020,
1000111010002220,
11210222,
30140130,
14014444,
10012010,
10222010,
10201022,
10122020,
10012010,
10222020,
10221220,
1020102220002022,
10201120,
10221020,
10201150,
000000000000000000000008000000000000200000000000,
1000111010101000,
2220202000102000,
10221020,
500000000000000000000000000000000008000000000000,
20002011,
20102011,
20002011,
2010100020002220,
10101022,
1000100020002220,
10101022,
12104400,
#GOGOSTART
1000201110102000,
1010200022202020,
1011101022202000,
2010201020002210,
1000201110102000,
10201120,
10215000,
000000000000000008000000000000000000000000000000,
1000111010101000,
10221120,
1011101011101010,
1000202010002220,
1000222010002220,
600000000000000000000008000000000000200000000000,
1000100022202000,
500000000000000000000000000008000000000000000000,
3022200030222000,
7008,
3022200030222000,
7008,
3022200030222000,
7008,
3022200030222000,
7008,
#GOGOEND
1000111010002220,
1010201000202022,
1000111010002220,
1010201000221020,
1000111010002220,
1010201000202022,
1011102011101011,
1020111022102210,
20001022,
20001022,
20001022,
21,
1130,
1130,
1111,
1022102030300000,
1,
,
11,
2220,
10111010,
10102222,
10215000,
000000000000000008000000300000300000000000000000,
#GOGOSTART
1000111010101000,
10221120,
1011101011101010,
1000202010002220,
1000222010002220,
600000000000000000000008000000000000200000000000,
1000100022202000,
500000000000000000000000000008000000000000000000,
3022200030222000,
7008,
3022200030222000,
7008,
3022200030222000,
7008,
3022200030222000,
7008,
#GOGOEND
1000111010002220,
11210222,
30140130,
14014444,
#END

COURSE:Hard
LEVEL:4
BALLOON:8,8,8,8,8,8,8,8
SCOREINIT:2810
SCOREDIFF:0
#START
100000000000100000100000100000000000200000000000,
100000100000000000100000000000200000200000000000,
100000000000100000100000100000000000200000000000,
100000100000000000100000000000200000100000000000,
100000000000100000100000100000000000200000000000,
100000100000000000100000000000200000200000000000,
100000000000200000200000000000100000100000000000,
200000200000000000200000400000000000400000000000,
100000000000000000000000100000000000100000000000,
100000000000200000200000000000000000000000000000,
100000000000200000000000100000000000200000000000,
100000000000000000200000200000000000000000000000,
100000000000000000000000100000000000100000000000,
100000000000200000200000000000000000200000000000,
100000000000200000000000100000000000200000000000,
100000000000000000200000200000000000200000200000,
100000000000200000000000100000000000100000000000,
100000000000200000200000000000000000200000000000,
100000000000100000000000100000100000500000000000,
000000000000000000000080000000000000000000000000,
100000000000100000100000100000100000100000000000,
200000200000200000200000000000000000200000000000,
100000000000200000000000100000000000200000000000,
500000000000000000000000000000000080000000000000,
200000000000000000000000200000000000100000100000,
200000000000100000000000200000000000100000100000,
200000000000000000000000200000000000100000100000,
200000100000100000000000200000000000200000200000,
100000000000000000000000100000000000000000000000,
100000000000100000000000200000000000200000000000,
100000000000000000000000100000000000000000000000,
100000200000100000000000400000400000000000000000,
#GOGOSTART
100000000000200000000000100000100000200000000000,
100000000000100000000000200000200000200000000000,
100000100000100000000000100000000000100000000000,
200000000000200000000000200000000000000000000000,
100000000000200000100000100000100000200000000000,
100000000000200000000000100000000000200000000000,
100000000000000000100000500000000000000000000000,
000000000000000080000000000000000000000000000000,
100000000000100000100000100000100000100000000000,
100000000000200000200000000000000000000000000000,
100000100000100000100000100000100000100000100000,
100000000000200000200000000000000000200000200000,
100000000000200000200000100000000000200000200000,
500000000000000000000080000000000000000000000000,
100000000000100000000000200000000000200000000000,
500000000000000000000000000000000080000000000000,
300000000000200000000000300000000000200000000000,
700000000000000000000000000000800000000000000000,
300000000000200000000000300000000000200000000000,
700000000000000000000000000000800000000000000000,
300000000000200000000000300000000000200000000000,
700000000000000000000000000000800000000000000000,
300000000000200000000000300000000000200000000000,
700000000000000000000000000000800000000000000000,
#GOGOEND
100000000000100000100000100000000000200000000000,
100000100000000000100000000000200000200000000000,
100000000000100000100000100000000000200000000000,
100000100000000000100000000000200000100000000000,
100000000000100000100000100000000000200000000000,
100000100000000000100000000000200000200000000000,
500000000000000000000000000000000000000000000000,
000000000000000000000000000000000080000000000000,
200000000000000000000000000000000000200000200000,
200000000000000000000000000000000000200000200000,
200000000000000000000000000000000000200000200000,
200000000000000000000000000000000000000000000000,
100000000000100000000000300000000000000000000000,
100000000000100000000000300000000000000000000000,
100000000000100000000000100000000000100000000000,
100000200000100000200000300000300000000000000000,
100000000000000000000000000000000000000000000000,
000000000000000000000000000000000000000000000000,
100000000000000000000000100000000000000000000000,
200000000000200000000000200000000000000000000000,
100000000000100000100000100000000000100000000000,
100000000000100000000000200000000000200000000000,
100000000000100000100000500000000000000000000000,
000000000000000080000000000000000000000000000000,
#GOGOSTART
100000000000100000100000100000100000100000000000,
100000000000200000200000000000000000000000000000,
100000100000100000100000100000100000100000100000,
100000000000200000200000000000000000200000200000,
100000000000200000200000100000000000200000200000,
500000000000000000000080000000000000000000000000,
100000000000100000000000200000000000200000000000,
500000000000000000000000000000000080000000000000,
300000000000200000000000300000000000200000000000,
700000000000000000000000000000800000000000000000,
300000000000200000000000300000000000200000000000,
700000000000000000000000000000800000000000000000,
300000000000200000000000300000000000200000000000,
700000000000000000000000000000800000000000000000,
300000000000200000000000300000000000200000000000,
700000000000000000000000000000800000000000000000,
#GOGOEND
100000000000100000100000100000000000200000000000,
100000100000000000100000000000200000200000000000,
100000000000200000200000000000100000100000000000,
200000200000000000200000400000400000400000400000,
#END

COURSE:Normal
LEVEL:4
BALLOON:6,6,6,6,6,6,6,6
SCOREINIT:4700
SCOREDIFF:0
#START
100000000000100000000000100000000000000000000000,
100000000000000000100000000000000000000000000000,
100000000000100000000000100000000000000000000000,
100000000000000000100000000000000000000000000000,
100000000000100000000000100000000000000000000000,
100000000000000000100000000000000000000000000000,
500000000000000000000000000000000000000000000000,
000000000000000000000000000000000080000000000000,
100000000000000000000000100000000000100000000000,
100000000000100000100000000000000000000000000000,
100000000000000000000000100000000000000000000000,
100000000000000000200000200000000000000000000000,
100000000000000000000000100000000000100000000000,
100000000000100000100000000000000000000000000000,
100000000000000000000000100000000000000000000000,
100000000000000000200000200000000000000000000000,
100000000000000000000000100000000000100000000000,
100000000000100000100000000000000000100000000000,
100000000000100000000000100000000000500000000000,
000000000000000000000080000000000000000000000000,
100000000000100000000000100000000000100000000000,
100000000000100000100000000000000000100000000000,
100000000000100000000000100000000000100000000000,
500000000000000000000000000000000080000000000000,
200000000000000000000000000000000000200000000000,
200000000000000000000000000000000000200000000000,
200000000000000000000000000000000000200000000000,
200000000000000000000000000000000000000000000000,
100000000000000000000000100000000000000000000000,
100000000000100000000000200000000000000000000000,
100000000000000000000000100000000000000000000000,
500000000000000000000000000080000000000000000000,
#GOGOSTART
100000000000100000000000100000100000100000000000,
100000000000000000000000200000000000200000000000,
100000000000100000000000100000100000100000000000,
200000000000200000000000200000000000000000000000,
100000000000100000000000100000100000100000000000,
100000000000000000000000200000000000200000000000,
100000000000000000000000500000000000000000000000,
000000000000000080000000000000000000000000000000,
100000000000100000000000100000000000100000000000,
100000000000100000100000000000000000000000000000,
100000000000100000000000100000000000100000000000,
100000000000100000100000000000000000200000000000,
100000000000200000000000100000000000200000000000,
500000000000000000000080000000000000000000000000,
100000000000100000000000100000000000200000000000,
500000000000000000000000000000000080000000000000,
300000000000000000000000300000000000000000000000,
700000000000000000000000000000800000000000000000,
300000000000000000000000300000000000000000000000,
700000000000000000000000000000800000000000000000,
300000000000000000000000300000000000000000000000,
700000000000000000000000000000800000000000000000,
300000000000000000000000300000000000000000000000,
700000000000000000000000000000800000000000000000,
#GOGOEND
100000000000100000000000100000000000000000000000,
100000000000000000100000000000000000000000000000,
100000000000100000000000100000000000000000000000,
100000000000000000100000000000000000000000000000,
100000000000100000000000100000000000000000000000,
100000000000000000100000000000000000000000000000,
500000000000000000000000000000000000000000000000,
000000000000000000000000000000000080000000000000,
200000000000000000000000000000000000200000000000,
200000000000000000000000000000000000200000000000,
200000000000000000000000000000000000200000000000,
200000000000000000000000000000000000000000000000,
100000000000100000000000300000000000000000000000,
100000000000100000000000300000000000000000000000,
100000000000100000000000100000000000100000000000,
500000000000000000000000000080000000000000000000,
100000000000000000000000000000000000000000000000,
000000000000000000000000000000000000000000000000,
100000000000000000000000100000000000000000000000,
200000000000200000000000200000000000000000000000,
100000000000000000000000100000000000000000000000,
100000000000000000000000200000000000200000000000,
100000000000000000000000500000000000000000000000,
000000000000000080000000000000000000000000000000,
#GOGOSTART
100000000000100000000000100000000000100000000000,
100000000000100000100000000000000000000000000000,
100000000000100000000000100000000000100000000000,
100000000000100000100000000000000000200000000000,
100000000000200000000000100000000000200000000000,
500000000000000000000080000000000000000000000000,
100000000000100000000000100000000000200000000000,
500000000000000000000000000000000080000000000000,
300000000000000000000000300000000000000000000000,
700000000000000000000000000000800000000000000000,
300000000000000000000000300000000000000000000000,
700000000000000000000000000000800000000000000000,
300000000000000000000000300000000000000000000000,
700000000000000000000000000000800000000000000000,
300000000000000000000000300000000000000000000000,
700000000000000000000000000000800000000000000000,
#GOGOEND
100000000000000000000000100000000000100000000000,
100000000000000000100000000000000000000000000000,
500000000000000000000000000000000000000000000000,
000000000000000000000000000000000000000008000000,
#END

COURSE:Easy
LEVEL:3
SCOREINIT:7310
SCOREDIFF:0
#START
100000000000000000000000100000000000000000000000,
100000000000000000000000000000000000000000000000,
100000000000000000000000100000000000000000000000,
100000000000000000000000000000000000000000000000,
100000000000000000000000100000000000000000000000,
100000000000000000000000000000000000000000000000,
500000000000000000000000000000000000000000000000,
000000000000000000000000000080000000000000000000,
100000000000000000000000000000000000000000000000,
100000000000000000000000000000000000000000000000,
100000000000000000000000100000000000000000000000,
100000000000000000000000000000000000000000000000,
100000000000000000000000000000000000000000000000,
100000000000000000000000000000000000000000000000,
100000000000000000000000100000000000000000000000,
100000000000000000000000000000000000000000000000,
100000000000000000000000100000000000000000000000,
100000000000000000000000000000000000000000000000,
100000000000000000000000500000000000000000000000,
000000000000000000000080000000000000000000000000,
100000000000000000000000100000000000000000000000,
100000000000000000000000000000000000000000000000,
100000000000100000000000100000000000000000000000,
100000000000000000000000000000000000000000000000,
200000000000000000000000000000000000000000000000,
200000000000000000000000000000000000000000000000,
200000000000000000000000000000000000000000000000,
200000000000000000000000000000000000000000000000,
100000000000000000000000100000000000000000000000,
100000000000000000000000000000000000000000000000,
100000000000000000000000100000000000000000000000,
500000000000000000000000000080000000000000000000,
#GOGOSTART
100000000000100000000000100000000000000000000000,
100000000000000000000000200000000000000000000000,
100000000000100000000000100000000000000000000000,
200000000000000000000000200000000000000000000000,
100000000000100000000000100000000000000000000000,
100000000000000000000000200000000000000000000000,
100000000000000000000000500000000000000000000000,
000000000000000080000000000000000000000000000000,
100000000000000000000000100000000000100000000000,
100000000000000000000000000000000000000000000000,
100000000000000000000000100000000000100000000000,
100000000000000000000000000000000000200000000000,
100000000000200000000000100000000000200000000000,
500000000000000000000080000000000000000000000000,
100000000000100000000000100000000000100000000000,
500000000000000000000000000080000000000000000000,
300000000000000000000000300000000000000000000000,
700000000000000000000000000000800000000000000000,
300000000000000000000000300000000000000000000000,
700000000000000000000000000000800000000000000000,
300000000000000000000000300000000000000000000000,
700000000000000000000000000000800000000000000000,
300000000000000000000000300000000000000000000000,
700000000000000000000000000000800000000000000000,
#GOGOEND
100000000000000000000000100000000000000000000000,
100000000000000000000000000000000000000000000000,
100000000000000000000000100000000000000000000000,
100000000000000000000000000000000000000000000000,
100000000000000000000000100000000000000000000000,
100000000000000000000000000000000000000000000000,
500000000000000000000000000000000000000000000000,
000000000000000000000000000080000000000000000000,
200000000000000000000000000000000000000000000000,
200000000000000000000000000000000000000000000000,
200000000000000000000000000000000000000000000000,
200000000000000000000000000000000000000000000000,
100000000000000000000000300000000000000000000000,
100000000000000000000000300000000000000000000000,
100000000000000000000000100000000000000000000000,
500000000000000000000000000080000000000000000000,
100000000000000000000000000000000000000000000000,
000000000000000000000000000000000000000000000000,
100000000000000000000000000000000000000000000000,
200000000000000000000000000000000000000000000000,
100000000000000000000000100000000000000000000000,
100000000000000000000000200000000000000000000000,
100000000000000000000000500000000000000000000000,
000000000000000080000000000000000000000000000000,
#GOGOSTART
100000000000000000000000100000000000100000000000,
100000000000000000000000000000000000000000000000,
100000000000000000000000100000000000100000000000,
100000000000000000000000000000000000200000000000,
100000000000200000000000100000000000200000000000,
500000000000000000000080000000000000000000000000,
100000000000100000000000100000000000100000000000,
500000000000000000000000000080000000000000000000,
300000000000000000000000300000000000000000000000,
700000000000000000000000000000800000000000000000,
300000000000000000000000300000000000000000000000,
700000000000000000000000000000800000000000000000,
300000000000000000000000300000000000000000000000,
700000000000000000000000000000800000000000000000,
300000000000000000000000300000000000000000000000,
700000000000000000000000000000800000000000000000,
#GOGOEND
100000000000000000000000100000000000000000000000,
100000000000000000000000000000000000000000000000,
500000000000000000000000000000000000000000000000,
000000000000000000000000000000000000000008000000,
#END
