//TJADB Project
TITLE:Dareka no Shinzou ni Nareta Nara
TITLEJA:だれかの心臓になれたなら
SUBTITLE:--YurryCanon feat. GUMI
SUBTITLEJA:ユリイ・カノン feat.GUMI
BPM:145
WAVE:Dareka no Shinzou ni Nareta Nara.ogg
OFFSET:-1.734
DEMOSTART:67.527

COURSE:Oni
LEVEL:8
BALLOON:6,6
SCOREINIT:470
SCOREDIFF:118
#START
30223022,
3022102030002020,
30223022,
3022102030002020,
10121012,
1022102010001020,
1011202010002020,
03,
1202102012021020,
1011102220111020,
1202102012021020,
1011101110222020,
1202102012021020,
1011102220111020,
1202102012021020,
1011101110222020,
1020201010220020,
1020201010221122,
1020201010220020,
1020201010221122,
10211010,
1020201040001022,
1020102011010010,
500000000000000008000000200200100100200200100100,
1020201010221020,
1020102010221122,
1020201010221020,
1020102010221122,
12112020,
1010201040001022,
1020102011020011,
2001201010002000,
1001001110200020,
1020201010220020,
1001001110200020,
1020201010220020,
1001001110200020,
12214011,
1022022220102020,
1111111120001010,
#GOGOSTART
1011202020221010,
1022102011201010,
1011202020221010,
1022102011221120,
1011202020221010,
1022102011201010,
1011202020221010,
3000400040112211,
70082011,
1022102011201010,
1011202020221010,
1022102011221120,
1011202020221010,
1022102011201010,
1011202020221010,
1022102010001010,
1011202020221010,
1022102011221010,
1011202020221010,
1022102011221122,
1011202020221010,
1022102011221010,
1011202020221010,
3000400040112211,
70082011,
1022102011102000,
6,
000000000000000000000008000000000000100000100000,
1011202020221010,
1022102011102000,
6,
000000000000000000000008000000000000000000000000,
1122201022102210,
2211102011201120,
1022101020221010,
1111111120000000,
#GOGOEND
#END

COURSE:Hard
LEVEL:6
BALLOON:5,5,9
SCOREINIT:630
SCOREDIFF:163
#START
33,
3130,
33,
3130,
1112,
1211,
1122,
03,
10121012,
11221020,
10121012,
1010202010222020,
10121012,
11221020,
10121012,
500000000000000000000000000000000008000000000000,
10211020,
12112000,
10211020,
12112000,
10112020,
1140,
1020102010010010,
500000000000000000000008000000000000000000000000,
12211020,
12112020,
12211020,
12112020,
10112020,
1140,
1020102010020020,
500000000000000000000000000000000008000000000000,
1001001010200000,
1212,
1001001010200000,
1212,
1001001010200000,
1140,
12121122,
3330,
#GOGOSTART
10112020,
1011101010001010,
10112010,
1011101010001010,
10112020,
1011101010001010,
10112010,
3440,
70082020,
1011101010001010,
10112010,
1011101010001010,
10112020,
1011101010001010,
10112010,
10101011,
20212011,
1022202020001010,
10212011,
1022202010001010,
20212011,
1022202020001010,
10212010,
3440,
70082011,
1011101010002000,
6,
000000000000000000000008000000000000100000100000,
20212011,
1022202020002000,
6,
000000000000000000000008000000000000000000000000,
10112110,
10221220,
1011101010101010,
9008,
#GOGOEND
,
#END

COURSE:1
LEVEL:4
BALLOON:5,5,7
SCOREINIT:690
SCOREDIFF:200
#START
33,
3130,
33,
3130,
1110,
1110,
1110,
03,
12,
1111,
12,
1122,
12,
1111,
12,
500000000000000000000000000000000008000000000000,
11,
1110,
11,
1110,
12,
1140,
1111,
500000000000000000000008000000000000000000000000,
11,
1120,
11,
1120,
11,
2240,
1111,
500000000000000000000000000000000008000000000000,
11,
2222,
11,
2222,
11,
2240,
1111,
3330,
#GOGOSTART
10111010,
1110,
10111020,
1110,
10111010,
1110,
10111020,
3330,
78,
1110,
10111020,
1110,
10111010,
1110,
10111020,
1110,
10222010,
1110,
10222010,
1210,
10222010,
1110,
10222010,
3330,
78,
1110,
6,
000000000000000000000008000000000000000000000000,
10222010,
1110,
6,
000000000000000000000008000000000000000000000000,
10101110,
20202220,
11102220,
9008,
#GOGOEND
,
#END

COURSE:0
LEVEL:3
BALLOON:4,4,5
SCOREINIT:640
SCOREDIFF:230
#START
33,
33,
33,
33,
1110,
1110,
1110,
03,
11,
2,
11,
22,
11,
2,
11,
500000000000000000000000000008000000000000000000,
1,
11,
1,
11,
11,
14,
1,
500000000000000000000008000000000000000000000000,
1,
11,
1,
11,
11,
24,
1,
500000000000000000000000000008000000000000000000,
1,
22,
1,
22,
1,
24,
11,
3330,
#GOGOSTART
11,
1110,
11,
1,
11,
1110,
12,
3330,
78,
1110,
11,
1,
11,
1110,
22,
1,
1110,
1110,
1110,
2220,
1110,
1110,
1110,
3330,
78,
1110,
6,
000000000000000000000008000000000000000000000000,
2220,
1110,
6,
000000000000000000000008000000000000000000000000,
1110,
2220,
1111,
9008,
#GOGOEND
,
#END
