//TJADB Project
TITLE:Karakuri Kairou
TITLEJA:絡繰廻廊
SUBTITLE:--Harunaba
SUBTITLEJA:はるなば
BPM:280
WAVE:Karakuri Kairou.ogg
OFFSET:-1.883
DEMOSTART:85.883

COURSE:Oni
LEVEL:10
BALLOON:5
SCOREINIT:1110
SCOREDIFF:0
#START
#MEASURE 8/4
#SCROLL 0.6
2,
20200020200020222000202000222000,
#GOGOSTART
3011010101101011,
0110101011010111,
1011010101101011,
0110101011010101,
2011010121101011,
2120201011010111,
2021212101101011,
20102000200010001010111020111010,
10001110102010102011102010101000,
11101020101020111020101010002020,
20001110102010102011102010101000,
11101020101020111011100030001010,
10001111102010102011102010101000,
11111020101020111020101010002020,
20001111102010102011102010101000,
11111020101020111011100030000020,
#GOGOEND
11101000201110100020111010100010,
1010110202021102,
11101000201110100020111011100010,
10001000101000200020002011101000,
#GOGOSTART
#BPMCHANGE 140
#MEASURE 4/4
#SCROLL 1.2
3011030301103030,
#GOGOEND
#BPMCHANGE 280
#MEASURE 8/4
#SCROLL 0.6
,
11112000000020000000300030001111,
#GOGOSTART
10001000101000100010100011112000,
10202020201010001111200011112000,
10101000101000200020200011112000,
#GOGOEND
10202020102020001111101110111000,
#GOGOSTART
10100010101000102011100010101000,
10001010003000300011101110111000,
10100010201000102011100020101000,
10001010003000300011101110112000,
10200020102000201022200010202000,
10002020004000400011101110111000,
20111011102000201111200010101000,
#BPMCHANGE 140
#MEASURE 4/4
#SCROLL 1.2
1003030300001111,
#GOGOEND
#BPMCHANGE 280
#MEASURE 8/4
#SCROLL 0.6
1000200000000022,
2000002000220200,
1,
20100020101020001020202022222000,
11111010100020002011111010100020,
00201020111010111020111110002000,
500000000000000008000000500000000000000008000000,
100111111111111111200400,
#GOGOSTART
1011102121110102,
00201020101010001111101110112020,
10001020111110101010002010201010,
#BPMCHANGE 140
#MEASURE 4/4
#SCROLL 1.2
#GOGOEND
100000101010101010101010101010201010200000200200,
#GOGOSTART
#BPMCHANGE 280
#MEASURE 8/4
#SCROLL 0.6
2011202121120212,
00201020101020001111201110112020,
20001020111110201010202020101010,
200000101010201010201010101010201010200000200200,
2011202121120212,
00201020101020001111201120112020,
20001020111120101020002010201010,
#BPMCHANGE 140
#MEASURE 4/4
#SCROLL 1.2
200000102020102020102020102020102020700000000800,
#GOGOEND
#BPMCHANGE 280
#MEASURE 8/4
#SCROLL 0.6
10101111101000101011100010101010,
11111010101000111000101020102010,
10111010102010201111101020102010,
10111010102010201111201120112000,
#GOGOSTART
20112020112011201120200020112020,
11202011200020002020112011202020,
20112020112011201120200020112020,
11202011200020002020112011201120,
#GOGOEND
5,
000000000000000000000000000000000000000000000008,
#END

COURSE:Hard
LEVEL:8
SCOREINIT:1640
SCOREDIFF:0
#START
#MEASURE 8/4
#SCROLL 0.6
2,
,
#GOGOSTART
3011010101101011,
0110101011010111,
1011010101101011,
0110101011010101,
1011010101101011,
0110101011010111,
1011010101101011,
000100100000100000100000500000000000000000008000,
0011010011010030,
0011010011011030,
0011010011010030,
0011110110303000,
0011010011010030,
0011010011011030,
0011010011010030,
0011110110303000,
#GOGOEND
1010110101101101,
1010110101011000,
1010110101101101,
1010110101011000,
#GOGOSTART
#BPMCHANGE 140
#MEASURE 4/4
#SCROLL 1.2
3011030301103030,
#GOGOEND
#BPMCHANGE 280
#MEASURE 8/4
#SCROLL 0.6
,
11102000000000000000000000000000,
#GOGOSTART
10001000101000100010100011102000,
10001000101010001110200011102000,
10101000101000100010100011102000,
#GOGOEND
10101000101010001110200011102000,
#GOGOSTART
10100010101000100011100010101000,
10001010003000300022200020002000,
10100010101000100011100010102000,
10001010003000300022200020002000,
10200010102000200022200010102000,
10002020004000400022200020002000,
10100011102000100011100010101000,
#BPMCHANGE 140
#MEASURE 4/4
#SCROLL 1.2
1003030300000000,
#GOGOEND
#BPMCHANGE 280
#MEASURE 8/4
#SCROLL 0.6
1000200000000022,
20020000,
1,
1101101011103000,
11101010100000001110101000100020,
00101000100011101010101000002000,
500000000000000008000000500000000000000008000000,
100100111100111111100400,
#GOGOSTART
1011102011110102,
00101000101010001110101000222020,
2011101111022220,
#BPMCHANGE 140
#MEASURE 4/4
#SCROLL 1.2
#GOGOEND
1010111011111020,
#GOGOSTART
#BPMCHANGE 280
#MEASURE 8/4
#SCROLL 0.6
2011202011110202,
00101000101020001110101000111010,
1011202011201120,
200100111100111111100200,
2011202011110202,
00101000101020001110101000222020,
2011201111022220,
#BPMCHANGE 140
#MEASURE 4/4
#SCROLL 1.2
2011111111111110,
#GOGOEND
#BPMCHANGE 280
#MEASURE 8/4
#SCROLL 0.6
10100010101000101011100010101000,
11101010003000300000100010101000,
10200010102000101011100020102000,
1112021201212110,
#GOGOSTART
3012010102101021,
0120101021010212,
1012010102101021,
0120101021010102,
#GOGOEND
5,
000000000000000000000000000000000000000000000008,
#END

COURSE:Normal
LEVEL:6
BALLOON:9,9,9,9
SCOREINIT:3660
SCOREDIFF:0
#START
#MEASURE 8/4
#SCROLL 0.6
2,
,
#GOGOSTART
3003030300000003,
03330000,
3003030300000003,
03330000,
3003030300000003,
03330000,
3003030300000006,
000000000000000000000000000000000000000000008000,
0010010010010030,
0010010010010030,
0010010010010030,
01103330,
0010010010010030,
0010010010010030,
0010010010010030,
01103330,
#GOGOEND
1010100100101000,
11100010,
1010100100101000,
11100010,
#GOGOSTART
#BPMCHANGE 140
#MEASURE 4/4
#SCROLL 1.2
3003030300303030,
#GOGOEND
#BPMCHANGE 280
#MEASURE 8/4
#SCROLL 0.6
,
12000000,
#GOGOSTART
1010100100101000,
11101210,
1010100100101000,
#GOGOEND
11101210,
#GOGOSTART
1000100300000000,
1003030300000000,
1003030300002000,
1003030300000000,
1000100400000000,
1004040400000000,
1003030300101010,
#BPMCHANGE 140
#MEASURE 4/4
#SCROLL 1.2
1003030300000000,
#GOGOEND
#BPMCHANGE 280
#MEASURE 8/4
#SCROLL 0.6
1200,
20020000,
1,
1001001001003000,
1010100010020202,
01101000,
500000000000000008000000500000000000000008000000,
7008,
#GOGOSTART
1010100010020202,
01101000,
1010100020020020,
#BPMCHANGE 140
#MEASURE 4/4
#SCROLL 1.2
#GOGOEND
7008,
#GOGOSTART
#BPMCHANGE 280
#MEASURE 8/4
#SCROLL 0.6
1010200010010102,
0010101020020000,
11201212,
7008,
1010200010010102,
0010101020020000,
1010101020020020,
#BPMCHANGE 140
#MEASURE 4/4
#SCROLL 1.2
7008,
#GOGOEND
#BPMCHANGE 280
#MEASURE 8/4
#SCROLL 0.6
1000100300101010,
1003030300000000,
1003030300101010,
1003030300000000,
#GOGOSTART
3003030303000003,
03333000,
3003030303000003,
03333000,
#GOGOEND
6,
000000000000000000000000000000000000000000000008,
#END

COURSE:Easy
LEVEL:4
BALLOON:7,7,7,7
SCOREINIT:5700
SCOREDIFF:0
#START
#MEASURE 8/4
#SCROLL 0.6
,
,
#GOGOSTART
3000000000000003,
,
3000000000000003,
,
3000000000000003,
,
3000000000000006,
000000000000000000000000000000000000000000008000,
0000000010010030,
0000000010010030,
0000000010010030,
00003330,
0000000010010030,
0000000010010030,
0000000010010030,
00003330,
#GOGOEND
1101,
11100000,
1101,
11100000,
#GOGOSTART
#BPMCHANGE 140
#MEASURE 4/4
#SCROLL 1.2
600000000000000000000000000000000000000000008000,
#GOGOEND
#BPMCHANGE 280
#MEASURE 8/4
#SCROLL 0.6
,
2,
#GOGOSTART
11100010,
11102020,
11100010,
#GOGOEND
11102020,
#GOGOSTART
1000100300000000,
1003030300000000,
1003030300000000,
1003030300000000,
1000100300000000,
1003030300000000,
1003030300000000,
#BPMCHANGE 140
#MEASURE 4/4
#SCROLL 1.2
1003030300000000,
#GOGOEND
#BPMCHANGE 280
#MEASURE 8/4
#SCROLL 0.6
1,
,
1,
,
1010100010000001,
01101000,
500000000008000000000000500000000008000000000000,
7008,
#GOGOSTART
1010100010000001,
01101000,
11101010,
#BPMCHANGE 140
#MEASURE 2/4
#SCROLL 1.2
#GOGOEND
7,
08,
#GOGOSTART
#BPMCHANGE 280
#MEASURE 8/4
#SCROLL 0.6
1010100020000001,
01102000,
11102220,
7008,
1010100020000001,
01102000,
11111020,
#BPMCHANGE 140
#MEASURE 4/4
#SCROLL 1.2
7008,
#GOGOEND
#BPMCHANGE 280
#MEASURE 8/4
#SCROLL 0.6
1000100300000000,
1003030300000000,
1003030300000000,
1003030300000000,
#GOGOSTART
3003030300000003,
03330000,
3003030300000003,
03330000,
#GOGOEND
6,
000000000000000000000000000000000000000000000008,
#END
