//TJADB Project
TITLE:Iiko Shinkaron
TITLEJA:イイコ進化論(feat. O-LuHA)
SUBTITLE:--ECCHAN feat. O-LuHA
BPM:270
WAVE:Iiko Shinkaron.ogg
OFFSET:-7.597
DEMOSTART:83.122

COURSE:Oni
LEVEL:9
BALLOON:32,16,12,16,32
SCOREINIT:1460
SCOREDIFF:0
#START
#MEASURE 8/4
#SCROLL 0.5
700000000000000000000000000000000000000000000000000000000000000000000000000000000000000000000000,
#SCROLL 0.75
000000000000000000000000000000000000000000800000000000000000000000000000000000000000000000000000,
100000000000000000100000000000000000100000000000200000000000100000100000100000000000100000000000,
100000000000000000100000000000000000100000000000200000200000100000100000200000200000100000100000,
100000000000000000100000000000000000100000000000200000000000100000100000100000000000100000000000,
100000000000000000100000000000000000100000000000200000000000100000000000100000100000100000000000,
100000000000000000100000000000000000100000000000200000000000100000100000100000000000100000000000,
100000000000000000100000000000000000100000000000200000200000100000100000200000200200200000200000,
300000000000200000200000100000200000100000000000100000200000100000100000200000000000100000200000,
100000000000200000200000100000200000100000000000200000200000100000200000200000000000200000200000,
100000000000200000200000100000200000100000000000100000200000100000100000200000000000100000200000,
100000000000200000200000100000200000100000000000100000200000100000200000200000100000200000200000,
300000000000200000200000100000200000100000000000100000200000100000100000200000000000100000200000,
100000000000200000200000100000200000100000000000200000200000100000200000200000000000200000200000,
100000000000200000200000100000200000100000000000100000200000100000100000200000000000100000200000,
700000000000000000000000000000000000000000000000000000000000000000800000000000000000000000000000,
100000000000200000000000100000000000100000100000100000000000100000100000100000000000200000000000,
100000000000200000100000100000000000100000000000100000000000100000100000100000000000200000000000,
100000000000200000000000100000000000100000100000100000000000100000000000200000000000100000000000,
100000000000100000000000200000000000100000100000100000000000200000200000400000000000200000000000,
100000000000200000000000100000000000200000100000100000200000100000100000200000000000100000000000,
100000000000200000000000100000000000200000100000100000200000100000100000200000000000200000000000,
100000000000200000000000100000000000200000100000100000200000100000100000200000000000100000000000,
100000000000100000000000200000000000200000200000100000000000200000200000100000200000200000200000,
#GOGOSTART
100000000000200000000000100000000000200000100100100000100000100000100000200000000000100000000000,
100000000000200000000000100000000000200000100100100000100000100000100000200000000000200000000000,
100000000000200000000000100000000000200000100100100000100000100000100000200000000000100000000000,
#GOGOEND
300000000000000000300000000000000000300000000000300000000000000000300000000000000000300000000000,
#GOGOSTART
100000000000200000000000100000000000200000100100100000100000100000100000200000000000100000000000,
100000000000200000000000100000000000200000100100100000100000100000100000200000000000200000000000,
100000000000200000000000100000000000200000100100100000100000100000100000200000000000100000000000,
#GOGOEND
300000000000200000100000000000200000100000000000100010001000100000000000400000000000000000000000,
300000000000100100100000000000000000100000000000400000000000100000100000100000000000100000000000,
300000000000100100100000000000000000100000000000400000000000100000100000200000200000100000100000,
300000000000100100100000000000000000100000000000400000000000100000100000100000000000100000000000,
#GOGOSTART
500000000000000000000000000000000000000000000000000000000000000000000000000000000080000000000000,
#GOGOEND
300000000000100100100000000000000000100000000000400000000000100000100000100000000000100000000000,
300000000000100100100000000000000000100000000000400000000000100000100000200000200000100000100000,
100000000000000000000000100000000000100000000000200000000000100000000000100000000000100000000000,
200000000000100000000000200000000000100000000000200000000000100000000000200000000000100000100000,
200000000000100000100000200000000000100000100000200000100000100000100000200000100000100000100000,
300000000000000000300000000000000000300000000000300000000000000000300000000000000000300000000000,
700000000000000000000000000000000000000000800000000000000000000000000000000000000000000000000000,
#GOGOSTART
#SCROLL 1
#MEASURE 4/4
100000000000200000100000000000100000200000000000,
100000000000200000000000100000100000200000000000,
100000000000200000100000000000100000200000000000,
100000100000200000000000100000100000200000000000,
100000000000200000100000000000100000200000000000,
100000000000200000000000100000100000200000200000,
100000000000200000100000000000100000200000000000,
100000000000200000200000100000200000200000200000,
100000000000200000100000000000100000200000100000,
100000000000200000100000100000100000200000000000,
100000000000200000100000000000100000200000100000,
100000000000200000100000100000100000200000000000,
300000000000000000300000000000000000300000000000,
400000000000000000400000000000000000400000000000,
200000100000200000100000200000100000200000100000,
200000000000200000200000200000200000200000200000,
100000000000200000100000000000100000200000000000,
100000000000200000000000100000100000200000000000,
100000000000200000100000000000100000200000000000,
100000000000200000000000100000100000200000000000,
300000000000200000300000000000100000400000000000,
300000000000200000300000000000100000400000000000,
600000000000000000000000000000000000000000000000,
000000000000000000000000000000000080000000000000,
100000000000200000100000000000100000200000000000,
100000000000200000000000100000100000200000000000,
100000000000200000100000000000100000200000000000,
100000000000200000000000100000100000200000000000,
100000000000200000100000000000100000200000000000,
100000000000200000000000100000100000200000000000,
100000000000200000100000100000000000200000100000,
100000000000200000100000100000100000200000000000,
100000000000200000100000000000100000200000000000,
200000100100100000100000200000200000200000200000,
700000000000000000000000000000000000000000000000,
000000000000000000000800000000000000000000000000,
300000000000200000100000000000100000200000000000,
100000000000200000000000100100100000200000000000,
100000000000200000100000000000100000200000000000,
100000000000200000000000100100100000200000000000,
100000000000200000100000000000100000200000000000,
100000000000200000000000100100100000200000000000,
100000000000100000200000000000200000100000000000,
300000200000200000200000300000200000200000200000,
300000000000200000100000000000100000200000000000,
100000000000200000000000100100100000200000000000,
100000000000200000100000000000100000200000000000,
100000000000200000200000100100100000200000000000,
100000000000200000100000000000100000200000000000,
100000000000200000000000100100100000200000000000,
100000000000100000200000000000200000100000000000,
300000200000200000200000300000200000200000200000,
700000000000000000000000000000000000000000000000,
,
,
8,
#END

COURSE:Hard
LEVEL:7
BALLOON:24,12,9,12,24
SCOREINIT:2140
SCOREDIFF:0
#START
#MEASURE 8/4
#SCROLL 0.5
700000000000000000000000000000000000000000000000000000000000000000000000000000000000000000000000,
#SCROLL 0.75
000000000000000000000000000000000000000000800000000000000000000000000000000000000000000000000000,
100000000000000000100000000000000000100000000000200000000000100000000000100000000000000000000000,
100000000000000000100000000000000000100000000000200000200000000000000000200000200000000000000000,
100000000000000000100000000000000000100000000000200000000000000000000000100000000000000000000000,
100000000000000000100000000000000000100000000000200000000000100000000000100000000000000000000000,
100000000000000000100000000000000000100000000000200000000000000000000000100000000000000000000000,
100000000000000000100000000000000000100000000000200000200000000000000000200000200000000000000000,
100000000000000000100000200000000000100000000000100000000000000000100000200000000000100000000000,
100000000000000000100000200000000000100000000000100000000000100000100000100000000000200000200000,
100000000000000000100000200000000000100000000000100000000000000000100000200000000000100000000000,
100000000000000000100000200000000000100000000000100000000000100000100000200000000000200000200000,
100000000000000000100000200000000000100000000000100000000000000000100000200000000000100000000000,
100000000000000000100000200000000000100000000000100000000000100000100000100000000000200000200000,
100000000000000000100000200000000000100000000000100000000000000000100000200000000000100000000000,
700000000000000000000000000000000000000000000000000000000000000000800000000000000000000000000000,
100000000000200000000000100000000000000000000000100000000000100000100000100000000000100000000000,
100000000000200000000000100000000000000000000000100000000000100000100000100000000000100000000000,
100000000000200000000000100000000000000000000000100000000000500000000000000000000000000000000000,
000000000000000000000000000000000000000000000000000000000000000000000080000000000000000000000000,
100000000000200000000000100000000000000000000000100000000000100000100000200000000000100000000000,
100000000000200000000000100000000000000000000000100000000000100000100000200000000000200000000000,
100000000000200000000000100000000000000000000000100000000000500000000000000000000000000000000000,
000000000000000000000000000000000000000000000000000000000000000000000080000000000000000000000000,
#GOGOSTART
100000000000000000000000200000000000100000100000000000100000100000000000100000000000200000000000,
100000000000000000000000200000000000100000100000000000100000100000000000200000000000200000000000,
100000000000000000000000200000000000100000100000000000100000100000000000100000000000200000000000,
#GOGOEND
300000000000000000300000000000000000300000000000300000000000000000300000000000000000300000000000,
#GOGOSTART
100000000000000000000000200000000000100000100000000000100000100000000000100000000000200000000000,
100000000000000000000000200000000000100000100000000000100000100000000000200000000000200000000000,
100000000000000000000000200000000000100000100000000000100000100000000000100000000000200000000000,
#GOGOEND
300000000000000000300000000000000000300000000000400000000000000000000000400000000000000000000000,
300000000000100000100000000000000000100000000000400000000000100000000000100000000000100000000000,
300000000000100000100000000000000000100000000000400000000000000000000000200000200000000000000000,
300000000000100000100000000000000000100000000000400000000000100000000000100000000000100000000000,
#GOGOSTART
500000000000000000000000000000000000000000000000000000000000000000000000000000000080000000000000,
#GOGOEND
300000000000100000100000000000000000100000000000400000000000100000000000100000000000100000000000,
300000000000100000100000000000000000100000000000400000000000000000000000200000200000000000000000,
100000000000000000000000100000000000000000000000100000000000000000000000100000000000000000000000,
100000000000100000000000100000000000000000000000100000000000100000000000100000000000000000000000,
100000000000100000000000100000000000100000000000100000000000100000000000100000100000100000000000,
300000000000000000300000000000000000300000000000300000000000000000300000000000000000300000000000,
700000000000000000000000000000000000000000800000000000000000000000000000000000000000000000000000,
#GOGOSTART
#SCROLL 1
#MEASURE 4/4
100000000000200000000000100000000000200000000000,
100000000000200000000000100000100000100000000000,
100000000000200000000000100000000000200000000000,
100000000000200000000000100000100000100000000000,
100000000000200000000000100000000000200000000000,
100000000000200000000000100000100000100000000000,
100000000000000000100000000000000000100000000000,
100000000000000000000000200000000000000000000000,
100000000000200000000000100000000000200000000000,
100000000000200000000000100000100000100000000000,
100000000000200000000000100000000000200000000000,
100000000000200000000000100000100000100000000000,
300000000000000000300000000000000000300000000000,
400000000000000000400000000000000000400000000000,
600000000000000000000000000000000080000000000000,
200000000000000000000000200000000000000000000000,
100000000000200000000000100000000000200000000000,
100000000000200000000000100000100000100000000000,
100000000000200000000000100000000000200000000000,
100000000000200000000000100000100000100000000000,
300000000000000000300000000000000000400000000000,
300000000000000000300000000000000000400000000000,
600000000000000000000000000000000000000000000000,
000000000000000000000000000000000080000000000000,
100000000000200000000000100000000000200000000000,
100000000000200000000000100000100000100000000000,
100000000000200000000000100000100000100000000000,
100000000000200000000000100000100000100000000000,
100000000000200000000000100000000000200000000000,
100000000000200000000000100000100000100000000000,
100000000000200000000000100000100000100000000000,
100000000000200000000000100000100000100000000000,
100000000000200000000000100000000000200000000000,
100000100000100000000000200000000000000000000000,
700000000000000000000000000000000000000000000000,
000000000000000000800000000000000000000000000000,
300000000000200000000000100000000000200000000000,
100000100000100000000000100000100000100000000000,
100000000000200000000000100000000000200000000000,
100000100000100000000000100000100000100000000000,
100000000000200000000000100000000000200000000000,
100000100000100000000000100000100000100000000000,
100000000000200000000000100000000000200000000000,
300000000000000000000000300000000000000000000000,
300000000000200000000000100000000000200000000000,
100000100000100000000000100000100000100000000000,
100000000000200000000000100000000000200000000000,
100000100000100000000000100000100000100000000000,
100000000000200000000000100000000000200000000000,
100000100000100000000000100000100000100000000000,
100000000000200000000000100000000000200000000000,
300000000000000000000000300000000000000000000000,
700000000000000000000000000000000000000000000000,
,
,
8,
#END

COURSE:Normal
LEVEL:6
BALLOON:16,9,6,9,17
SCOREINIT:3900
SCOREDIFF:0
#START
#MEASURE 8/4
#SCROLL 0.5
700000000000000000000000000000000000000000000000000000000000000000000000000000000000000000000000,
#SCROLL 0.75
000000000000000000000000000000000000000000800000000000000000000000000000000000000000000000000000,
100000000000000000100000000000000000000000000000200000000000000000000000000000000000000000000000,
100000000000000000100000000000000000000000000000200000000000000000000000200000000000000000000000,
100000000000000000100000000000000000000000000000200000000000000000000000000000000000000000000000,
100000000000000000100000000000000000000000000000200000000000000000000000000000000000000000000000,
100000000000000000100000000000000000000000000000200000000000000000000000000000000000000000000000,
100000000000000000100000000000000000000000000000200000000000000000000000200000000000000000000000,
100000000000000000000000100000000000000000000000100000000000000000000000100000000000000000000000,
100000000000000000000000100000000000000000000000100000000000100000000000200000000000000000000000,
100000000000000000000000100000000000000000000000100000000000000000000000100000000000000000000000,
100000000000000000000000100000000000000000000000200000000000100000000000200000000000000000000000,
100000000000000000000000100000000000000000000000100000000000000000000000100000000000000000000000,
100000000000000000000000100000000000000000000000100000000000100000000000200000000000000000000000,
100000000000000000000000100000000000000000000000100000000000000000000000100000000000000000000000,
700000000000000000000000000000000000000000000000000000000000000000800000000000000000000000000000,
100000000000000000000000000000000000000000000000100000000000000000000000100000000000000000000000,
100000000000000000000000000000000000000000000000100000000000000000000000100000000000000000000000,
100000000000000000000000100000000000000000000000000000000000500000000000000000000000000000000000,
000000000000000000000000000000000000000000000000000000000000000000000080000000000000000000000000,
100000000000000000000000000000000000000000000000100000000000000000000000100000000000000000000000,
100000000000000000000000000000000000000000000000100000000000000000000000100000000000000000000000,
100000000000000000000000100000000000000000000000000000000000500000000000000000000000000000000000,
000000000000000000000000000000000000000000000000000000000000000000000080000000000000000000000000,
#GOGOSTART
100000000000000000000000000000000000000000100000000000000000100000000000100000000000000000000000,
100000000000000000000000000000000000000000100000000000000000200000000000200000000000000000000000,
100000000000000000000000000000000000000000100000000000000000100000000000100000000000000000000000,
#GOGOEND
600000000000000000000000000000000000000000000000000000000000000000000000000000000080000000000000,
#GOGOSTART
100000000000000000000000000000000000000000100000000000000000100000000000100000000000000000000000,
100000000000000000000000000000000000000000100000000000000000200000000000200000000000000000000000,
100000000000000000000000000000000000000000100000000000000000100000000000100000000000000000000000,
#GOGOEND
300000000000000000000000000000000000000000000000400000000000000000000000000000000000000000000000,
300000000000000000100000000000000000000000000000400000000000000000000000100000000000000000000000,
300000000000000000100000000000000000000000000000400000000000000000000000200000000000000000000000,
300000000000000000100000000000000000000000000000400000000000000000000000100000000000000000000000,
#GOGOSTART
500000000000000000000000000000000000000000000000000000000000000000000000000000000080000000000000,
#GOGOEND
300000000000000000100000000000000000000000000000400000000000000000000000100000000000000000000000,
300000000000000000100000000000000000000000000000400000000000000000000000400000000000000000000000,
100000000000000000000000100000000000000000000000100000000000000000000000100000000000000000000000,
100000000000000000000000100000000000000000000000100000000000000000000000100000000000000000000000,
100000000000100000000000100000000000000000000000100000000000100000000000100000000000000000000000,
300000000000000000300000000000000000000000000000300000000000000000300000000000000000000000000000,
700000000000000000000000000000000000000000800000000000000000000000000000000000000000000000000000,
#GOGOSTART
#SCROLL 1
#MEASURE 4/4
100000000000000000000000100000000000000000000000,
100000000000200000000000100000000000000000000000,
100000000000000000000000100000000000000000000000,
100000000000200000000000100000000000200000000000,
100000000000000000000000100000000000000000000000,
100000000000200000000000100000000000000000000000,
100000000000000000000000100000000000000000000000,
100000000000200000000000100000000000200000000000,
100000000000000000000000100000000000000000000000,
100000000000200000000000100000000000000000000000,
100000000000000000000000100000000000000000000000,
100000000000200000000000100000000000200000000000,
300000000000000000300000000000000000000000000000,
300000000000000000300000000000000000000000000000,
600000000000000000000000000000000080000000000000,
200000000000000000000000200000000000000000000000,
100000000000000000000000100000000000000000000000,
100000000000200000000000100000000000000000000000,
100000000000000000000000100000000000000000000000,
100000000000200000000000100000000000200000000000,
300000000000000000300000000000000000000000000000,
300000000000000000300000000000000000000000000000,
600000000000000000000000000000000000000000000000,
000000000000000000000000000000000080000000000000,
100000000000000000000000100000000000000000000000,
100000000000200000000000100000000000200000000000,
100000000000000000000000100000000000000000000000,
100000000000100000000000200000000000200000000000,
100000000000000000000000200000000000000000000000,
100000000000200000000000100000000000200000000000,
100000000000000000000000200000000000000000000000,
100000000000000000000000200000000000000000000000,
100000000000000000000000100000000000000000000000,
200000000000100000000000200000000000000000000000,
700000000000000000000000000000000000000000000000,
000000000000000000800000000000000000000000000000,
300000000000000000000000100000000000000000000000,
100000000000200000000000100000000000000000000000,
100000000000000000000000100000000000000000000000,
100000000000200000000000100000000000000000000000,
100000000000000000000000100000000000000000000000,
100000000000200000000000100000000000000000000000,
100000000000200000000000100000000000000000000000,
300000000000000000000000300000000000000000000000,
300000000000000000000000100000000000000000000000,
100000000000200000000000100000000000000000000000,
100000000000000000000000100000000000000000000000,
100000000000200000000000100000000000200000000000,
100000000000000000000000100000000000000000000000,
100000000000200000000000100000000000000000000000,
100000000000200000000000100000000000000000000000,
300000000000000000000000300000000000000000000000,
700000000000000000000000000000000000000000000000,
,
,
8,
#END

COURSE:Easy
LEVEL:3
BALLOON:12,6,5,7,12
SCOREINIT:7180
SCOREDIFF:0
#START
#MEASURE 8/4
#SCROLL 0.5
700000000000000000000000000000000000000000000000000000000000000000000000000000000000000000000000,
#SCROLL 0.75
000000000000000000000000000000000000000000800000000000000000000000000000000000000000000000000000,
100000000000000000000000000000000000000000000000200000000000000000000000000000000000000000000000,
100000000000000000000000000000000000000000000000200000000000000000000000200000000000000000000000,
100000000000000000000000000000000000000000000000200000000000000000000000000000000000000000000000,
100000000000000000000000000000000000000000000000200000000000000000000000000000000000000000000000,
100000000000000000000000000000000000000000000000200000000000000000000000000000000000000000000000,
100000000000000000000000000000000000000000000000200000000000000000000000200000000000000000000000,
100000000000000000000000000000000000000000000000100000000000000000000000000000000000000000000000,
100000000000000000000000000000000000000000000000100000000000000000000000100000000000000000000000,
100000000000000000000000000000000000000000000000100000000000000000000000000000000000000000000000,
100000000000000000000000000000000000000000000000200000000000000000000000200000000000000000000000,
100000000000000000000000000000000000000000000000100000000000000000000000000000000000000000000000,
100000000000000000000000000000000000000000000000100000000000000000000000100000000000000000000000,
100000000000000000000000000000000000000000000000100000000000000000000000000000000000000000000000,
700000000000000000000000000000000000000000000000000000000000000000800000000000000000000000000000,
100000000000000000000000000000000000000000000000000000000000000000000000000000000000000000000000,
100000000000000000000000000000000000000000000000000000000000000000000000000000000000000000000000,
100000000000000000000000000000000000000000000000000000000000500000000000000000000000000000000000,
000000000000000000000000000000000000000000000000000000000000000000000080000000000000000000000000,
100000000000000000000000000000000000000000000000100000000000000000000000000000000000000000000000,
100000000000000000000000000000000000000000000000100000000000000000000000000000000000000000000000,
100000000000000000000000000000000000000000000000000000000000500000000000000000000000000000000000,
000000000000000000000000000000000000000000000000000000000000000000000080000000000000000000000000,
#GOGOSTART
100000000000000000000000000000000000000000100000000000000000000000000000000000000000000000000000,
100000000000000000000000000000000000000000100000000000000000000000000000000000000000000000000000,
100000000000000000000000000000000000000000100000000000000000000000000000000000000000000000000000,
#GOGOEND
600000000000000000000000000000000000000000000000000000000000000000000080000000000000000000000000,
#GOGOSTART
100000000000000000000000000000000000000000100000000000000000000000000000000000000000000000000000,
100000000000000000000000000000000000000000100000000000000000000000000000000000000000000000000000,
100000000000000000000000000000000000000000100000000000000000000000000000000000000000000000000000,
#GOGOEND
300000000000000000000000000000000000000000000000300000000000000000000000000000000000000000000000,
300000000000000000000000000000000000000000000000400000000000000000000000000000000000000000000000,
300000000000000000000000000000000000000000000000400000000000000000000000000000000000000000000000,
300000000000000000000000000000000000000000000000400000000000000000000000000000000000000000000000,
#GOGOSTART
500000000000000000000000000000000000000000000000000000000000000000000080000000000000000000000000,
#GOGOEND
300000000000000000000000000000000000000000000000400000000000000000000000000000000000000000000000,
300000000000000000000000000000000000000000000000400000000000000000000000000000000000000000000000,
100000000000000000000000000000000000000000000000100000000000000000000000000000000000000000000000,
100000000000000000000000000000000000000000000000100000000000000000000000000000000000000000000000,
100000000000000000000000100000000000000000000000100000000000000000000000100000000000000000000000,
300000000000000000000000000000000000000000000000300000000000000000000000000000000000000000000000,
700000000000000000000000000000000000000000800000000000000000000000000000000000000000000000000000,
#GOGOSTART
#SCROLL 1
#MEASURE 4/4
100000000000000000000000000000000000000000000000,
100000000000000000000000100000000000000000000000,
100000000000000000000000000000000000000000000000,
200000000000000000000000200000000000000000000000,
100000000000000000000000000000000000000000000000,
100000000000000000000000100000000000000000000000,
100000000000000000000000000000000000000000000000,
200000000000000000000000000000000000000000000000,
100000000000000000000000000000000000000000000000,
100000000000000000000000100000000000000000000000,
100000000000000000000000000000000000000000000000,
200000000000000000000000200000000000000000000000,
300000000000000000000000000000000000000000000000,
300000000000000000000000000000000000000000000000,
600000000000000000000000000000000080000000000000,
000000000000000000000000000000000000000000000000,
300000000000000000000000000000000000000000000000,
100000000000000000000000100000000000000000000000,
100000000000000000000000000000000000000000000000,
200000000000000000000000200000000000000000000000,
300000000000000000000000000000000000000000000000,
300000000000000000000000000000000000000000000000,
600000000000000000000000000000000000000000000000,
000000000000000000000000000080000000000000000000,
100000000000000000000000000000000000000000000000,
100000000000000000000000100000000000000000000000,
100000000000000000000000000000000000000000000000,
200000000000000000000000200000000000000000000000,
100000000000000000000000000000000000000000000000,
100000000000000000000000000000000000000000000000,
200000000000000000000000200000000000000000000000,
200000000000000000000000200000000000000000000000,
200000000000000000000000000000000000000000000000,
200000000000000000000000000000000000000000000000,
700000000000000000000000000000000000000000000000,
000000000000000000800000000000000000000000000000,
300000000000000000000000000000000000000000000000,
100000000000000000000000200000000000000000000000,
100000000000000000000000000000000000000000000000,
100000000000000000000000200000000000000000000000,
100000000000000000000000000000000000000000000000,
100000000000000000000000200000000000000000000000,
100000000000000000000000000000000000000000000000,
300000000000000000000000300000000000000000000000,
300000000000000000000000000000000000000000000000,
100000000000000000000000200000000000000000000000,
100000000000000000000000000000000000000000000000,
100000000000000000000000200000000000000000000000,
100000000000000000000000000000000000000000000000,
100000000000000000000000200000000000000000000000,
100000000000000000000000000000000000000000000000,
300000000000000000000000300000000000000000000000,
700000000000000000000000000000000000000000000000,
,
,
8,
#END
