//TJADB Project
TITLE:Kibou no Tsuki
TITLEJA:幾望の月
SUBTITLE:--nakyamurya feat. Yuzuki Yukari
SUBTITLEJA:なきゃむりゃ feat. 結月ゆかり
BPM:138
WAVE:Kibou no Tsuki.ogg
OFFSET:-0.463
DEMOSTART:50.888

COURSE:Oni
LEVEL:9
BALLOON:4
SCOREINIT:1190
SCOREDIFF:0
#START
#MEASURE 5/8
3,
3,
3,
#MEASURE 3/4
300021100000,
#MEASURE 5/8
3,
3,
3,
#MEASURE 3/4
100200200200200100202020100200200000,
#MEASURE 5/8
1121010202,
100100200100000100000200202020,
1121010202,
#MEASURE 3/4
200100100100100200101010200200200000,
#MEASURE 5/8
1121010202,
100100200100000100000200202020,
1121010202,
#MEASURE 3/4
200100100100100200101010200200200000,
#MEASURE 5/8
1221010202,
100200200100000100000200202020,
1221010202,
#MEASURE 3/4
200100100100100200101010200100100000,
#MEASURE 5/8
1221010202,
100200200100000100000200202020,
1221010202,
#MEASURE 3/4
200100100100100200101010200200200000,
#MEASURE 5/8
1221010212,
1221010212,
1221010212,
#MEASURE 3/4
200100100100100200101010200200200000,
#MEASURE 5/8
1111020202,
1111020202,
1111020202,
#MEASURE 3/4
100200200200200100200200100100101010,
#MEASURE 4/4
1010220100001020,
0000220200002020,
0010001011010000,
2212001221220021,
0010220102001000,
2020220210021110,
000000102020100000100000100200100000200000100100,
100200200000200200100100100000202020100000101010,
1110210211102210,
0010220212221010,
000000100100200000101010100100100000200200100000,
2212021011221221,
0010220102102012,
1011221121121110,
0010201121112012,
111222122122,
1020202210012012,
#MEASURE 3/4
200021102022,
#MEASURE 4/4
1010121010012012,
#MEASURE 3/4
200211202210,
#MEASURE 4/4
1001201020101022,
#MEASURE 3/4
100120102011,
#MEASURE 4/4
100000200022200022200022,
2221200700080000,
#GOGOSTART
1011201120222010,
0021202210221220,
1012101210112030,
0022102210221222,
1011201120222010,
0021202210221220,
1022102210212050,
000000000000000000000000000000000000000008000000,
0010221010221210,
1022202210210210,
0022102210221222,
1022202210210210,
0010221010221210,
1022202210210020,
#GOGOEND
322322322321,
411411411411,
#MEASURE 5/8
1121010202,
100100200100000100000200202020,
1121010202,
#MEASURE 3/4
200100100100100200101010200200100000,
#MEASURE 5/8
1121010202,
100100200100000100000200202020,
1121010202,
#MEASURE 3/4
200100100100100200101010200200200000,
#MEASURE 5/8
#GOGOSTART
#SCROLL 1.1
1221010202,
100200200100000100000200202020,
1221010202,
#MEASURE 3/4
200100100100100200101010200200100000,
#MEASURE 5/8
1221010202,
100200200100000100000200202020,
1221010202,
#MEASURE 3/4
200100100100100200101010200200200000,
#MEASURE 5/8
#SCROLL 1.25
1221010212,
1221010212,
1221010212,
#MEASURE 3/4
200100100100100200101010200200200000,
#MEASURE 5/8
#GOGOEND
#SCROLL 1
1111020202,
1111020202,
1111020202,
#MEASURE 4/4
100200200100100100200100200200101010000000300000,
#END

COURSE:Hard
LEVEL:7
SCOREINIT:2210
SCOREDIFF:
#START
#MEASURE 5/8
3,
3,
3,
#MEASURE 3/4
31,
#MEASURE 5/8
3,
3,
3,
#MEASURE 3/4
111020201110,
#MEASURE 5/8
1001010102,
1001010102,
1001010102,
#MEASURE 3/4
100201021000,
#MEASURE 5/8
1001010102,
1001010102,
1001010102,
#MEASURE 3/4
100201021000,
#MEASURE 5/8
1001010202,
1001010202,
1001010202,
#MEASURE 3/4
100201021000,
#MEASURE 5/8
1001010202,
1001010202,
1001010202,
#MEASURE 3/4
100201021000,
#MEASURE 5/8
1001020202,
1001020202,
1001020202,
#MEASURE 3/4
100201021000,
#MEASURE 5/8
11110,
11110,
11110,
#MEASURE 3/4
102220201110,
#MEASURE 4/4
1000000100001020,
0000220200002020,
0010000011010000,
2002000020020001,
0000200100001000,
2000200200001110,
01101110,
1010110100102000,
1010220100102010,
0010220100002020,
0010001011100000,
2002000010010001,
0010110100002000,
1010220200002220,
0222,
111200111200,
1020202010010010,
#MEASURE 3/4
000011100000,
#MEASURE 4/4
1020202010010010,
#MEASURE 3/4
000011100000,
#MEASURE 4/4
10212110,
#MEASURE 3/4
102121,
#MEASURE 4/4
5,
000000000000000008000000000000000000000000000000,
#GOGOSTART
10201111,
0020100010111000,
10201113,
02323230,
10201111,
0020100010111000,
1000200011102050,
000000000000000000000000000000000000000008000000,
0020100010222000,
1000200010010030,
02323230,
1000200010010010,
0020100010111000,
1000200010010000,
#GOGOEND
3333,
4444,
#MEASURE 5/8
1001010102,
1001010102,
1001010102,
#MEASURE 3/4
100201021000,
#MEASURE 5/8
1001010102,
1001010102,
1001010102,
#MEASURE 3/4
100201021000,
#MEASURE 5/8
#GOGOSTART
1001010202,
1001010202,
1001010202,
#MEASURE 3/4
100201021000,
#MEASURE 5/8
1001010202,
1001010202,
1001010202,
#MEASURE 3/4
100201021000,
#MEASURE 5/8
1001020202,
1001020202,
1001020202,
#MEASURE 3/4
100201021000,
#MEASURE 5/8
#GOGOEND
11110,
11110,
11110,
20202,
#MEASURE 4/4
00000003,
#END

COURSE:Normal
LEVEL:5
SCOREINIT:3910
SCOREDIFF:
#START
#MEASURE 5/8
3,
3,
3,
#MEASURE 3/4
4,
#MEASURE 5/8
3,
3,
3,
#MEASURE 3/4
102,
#MEASURE 5/8
10010,
10010,
10010,
#MEASURE 3/4
100002002000,
#MEASURE 5/8
10010,
10010,
10010,
#MEASURE 3/4
100002002000,
#MEASURE 5/8
10010,
10010,
10010,
#MEASURE 3/4
100002002000,
#MEASURE 5/8
10010,
10010,
10010,
#MEASURE 3/4
100002002000,
#MEASURE 5/8
10020,
10020,
10020,
#MEASURE 3/4
100002002000,
#MEASURE 5/8
30010,
30010,
30010,
#MEASURE 3/4
1210,
#MEASURE 4/4
1000000100000020,
0000200200002020,
0010000010010000,
2000000020000001,
0000000100001000,
2000200200000010,
01101010,
1000100100002000,
1000000100000010,
0000200200001010,
01001100,
2000000020000001,
0000000100001000,
2000200200000010,
0222,
1212,
1000002010010010,
#MEASURE 3/4
001100,
#MEASURE 4/4
1000002010010010,
#MEASURE 3/4
001100,
#MEASURE 4/4
1221,
#MEASURE 3/4
102021,
#MEASURE 4/4
5,
000000000000000008000000000000000000000000000000,
#GOGOSTART
10201111,
02101010,
10201113,
0333,
10201111,
02101010,
10201025,
000000000000000000000000000000000000000008000000,
0112,
1000200010010030,
0333,
1000200010010010,
02101010,
1000200010010000,
#GOGOEND
3333,
4444,
#MEASURE 5/8
10010,
10010,
10010,
#MEASURE 3/4
100002002000,
#MEASURE 5/8
10010,
10010,
10010,
#MEASURE 3/4
100002002000,
#MEASURE 5/8
#GOGOSTART
10010,
10010,
10010,
#MEASURE 3/4
100002002000,
#MEASURE 5/8
10010,
10010,
10010,
#MEASURE 3/4
100002002000,
#MEASURE 5/8
10020,
10020,
10020,
#MEASURE 3/4
100002002000,
#MEASURE 5/8
#GOGOEND
30010,
30010,
30010,
#MEASURE 4/4
00000003,
#END

COURSE:Easy
LEVEL:4
SCOREINIT:7280
SCOREDIFF:
#START
#MEASURE 5/8
3,
3,
3,
#MEASURE 3/4
0,
#MEASURE 5/8
3,
3,
3,
#MEASURE 3/4
0,
#MEASURE 5/8
1,
1,
1,
#MEASURE 3/4
200002000000,
#MEASURE 5/8
1,
1,
1,
#MEASURE 3/4
200002000000,
#MEASURE 5/8
1,
1,
1,
#MEASURE 3/4
200002000000,
#MEASURE 5/8
1,
1,
1,
#MEASURE 3/4
200002000000,
#MEASURE 5/8
1,
1,
1,
#MEASURE 3/4
200002000000,
#MEASURE 5/8
3,
3,
3,
#MEASURE 3/4
4,
#MEASURE 4/4
10000002,
0000000200000000,
01001000,
2000000020000001,
0000000100000000,
2000000200000010,
01,
1000000100000000,
1000000100000020,
0000000200000000,
01001000,
2000000020000001,
0000000100000000,
1000000100000010,
01,
11,
500000000000000000000000000008000000000000000000,
#MEASURE 3/4
2,
#MEASURE 4/4
1,
#MEASURE 3/4
2,
#MEASURE 4/4
1021,
#MEASURE 3/4
022,
#MEASURE 4/4
5,
000000000000000008000000000000000000000000000000,
#GOGOSTART
10001001,
0120,
10001003,
0330,
10001001,
0120,
10001005,
000000000000000000000000000000000000000008000000,
01,
10001003,
0330,
10001001,
0120,
11,
#GOGOEND
33,
44,
#MEASURE 5/8
1,
1,
1,
#MEASURE 3/4
200002000000,
#MEASURE 5/8
1,
1,
1,
#MEASURE 3/4
200002000000,
#MEASURE 5/8
#GOGOSTART
1,
1,
1,
#MEASURE 3/4
200002000000,
#MEASURE 5/8
1,
1,
1,
#MEASURE 3/4
200002000000,
#MEASURE 5/8
1,
1,
1,
#MEASURE 3/4
200002000000,
#MEASURE 5/8
#GOGOEND
3,
3,
3,
#MEASURE 4/4
00000003,
#END
