//TJADB Project
TITLE:YOAKE
TITLEJA:YOAKE
SUBTITLE:--Capchii feat. Uzumaki
SUBTITLEJA:Capchii feat. Uzumaki
BPM:202
WAVE:YOAKE.ogg
OFFSET:-1.236
DEMOSTART:51.716

COURSE:Oni
LEVEL:10
BALLOON:2,2
SCOREINIT:1040
SCOREDIFF:0
#START
,
,
20202178,
#GOGOSTART
1010200211102010,
0010200211112022,
1010200211102010,
0011201022021011,
1010200211102010,
0010200211112022,
1010200211102010,
000000100100200000100000101020100000101020100000,
2220300211102010,
0010200211112022,
1010200211102010,
0011201022021011,
1010200211102010,
0010200211112022,
2010201022122210,
000000100100200000100000101020100000300000000000,
#GOGOEND
1000200020021020,
1020100012201022,
1000200020021020,
1020202011101020,
1000100011021020,
1000100212201022,
1000200212021022,
1010201022102222,
1110400210102010,
0010200210102011,
1210200210112010,
0011201022021011,
1010200211102010,
0011200210112022,
1110200210112010,
0011201022111011,
10112122,
12102111,
10112122,
1020100020202222,
1110400211102010,
0010200210112010,
40440404,
14401010,
#GOGOSTART
3000201210102010,
0011201211112022,
1000201210112010,
0011201021112111,
1010201210102030,
0011202211112022,
1110201121112050,
000000000000000008000000200200100100200200100100,
1111202212102010,
0011202211112022,
1110201121112010,
0011201021112111,
1111202212112030,
0011202210112022,
1010121011112250,
000000000000000008000000101020100000101020100000,
#GOGOEND
1010201210102010,
2010201221112222,
1010201211102010,
2011201022021010,
110110220220110220220300,
0010200211112021,
2211221120111030,
000000100100200000100000101020100000101020100000,
20200202,
0222,
20200202,
0000200020222000,
1022100010201020,
12101010,
1222100010201020,
40404111,
10210120,
1010201022101010,
10210120,
1010201010202222,
1000400211102022,
200000100100100000202020100000101010200000000000,
40440404,
14401010,
30000203,
000000100100200000100000100010001000100010001000,
30010203,
000000100100200000100000101020100000101020100000,
11111111,
33333333,
4,
0000000020102220,
#GOGOSTART
1111201111112111,
1111201211112222,
1111201211112111,
1111201122221111,
1111201111112111,
1111201211112222,
2111211121212150,
000000000000000008000000200200100100700000800000,
#GOGOEND
1011101020001011,
1010200022111000,
1101101020001101,
1010200022111110,
1111101020001111,
1010200022111000,
1111111120001111,
1111200040404040,
#END

COURSE:Hard
LEVEL:8
BALLOON:16
SCOREINIT:1660
SCOREDIFF:0
#START
,
,
200000000000200000000000200000100000500008000000,
#GOGOSTART
11201121,
01201120,
11201121,
0010200022021010,
11201121,
01201122,
11201121,
0010200011101000,
20301121,
01201120,
11201121,
0010200022021010,
11201121,
01201122,
21212123,
0010200011103000,
#GOGOEND
1222,
12102012,
1222,
12101212,
10101012,
10101212,
10101012,
1010201022202000,
10401121,
01201120,
10201121,
0010200022021010,
11201121,
01201122,
10221121,
0010200011101000,
10112022,
1121,
10112022,
1000100020202220,
1000400011100010,
0010200010111000,
40440404,
04401010,
#GOGOSTART
30210121,
0011100010102020,
10210121,
0010201020102220,
10210123,
0011100020102020,
11212125,
000000000000000008000000200000000000200000000000,
30210121,
0011100010102020,
10210121,
0010201020102220,
10210123,
0011100020102020,
11212125,
000000000000000000000000000000000008000000000000,
#GOGOEND
11211121,
0010201011102000,
11211121,
0010200022202000,
7,
8022,
2220202020111050,
000000000000000000000000000000000000000008000000,
20200202,
0222,
20200202,
0222,
10101212,
1112,
12101212,
40404110,
10210120,
11210110,
10210120,
1010201000202220,
1000400011100010,
01212120,
40440404,
04401010,
30000203,
000200111100,
30000203,
0011100010001000,
11111111,
33333333,
4,
00002120,
#GOGOSTART
1110201000200010,
0010200011102000,
1110201000202010,
0010200011102220,
1110201000200030,
0011101022202020,
11212125,
000000000000000000000000000000000008000000000000,
#GOGOEND
1001001020001001,
0010200011101000,
1001001020001001,
0010200011101000,
1001001020001001,
0010200011101000,
1001001020001001,
01204444,
#END

COURSE:Normal
LEVEL:7
BALLOON:9,10,9
SCOREINIT:2630
SCOREDIFF:0
#START
,
,
2223,
#GOGOSTART
10201111,
0212,
10201111,
0221,
10201111,
0212,
10201111,
0211,
20301111,
0212,
10201111,
0221,
10201111,
0212,
20202225,
000000000000000000000000000000000008000000000000,
#GOGOEND
1222,
2220,
1222,
2210,
1111,
10101011,
1111,
10101110,
10201101,
01002000,
10201101,
0121,
10201101,
0120,
10202021,
00201110,
10012000,
1021,
10012000,
10102220,
10401101,
0111,
7,
8,
#GOGOSTART
30110201,
01102020,
10110111,
0222,
10110203,
00101110,
10202225,
000000000000000008000000000000000000000000000000,
30110201,
01102020,
10110111,
0222,
10110203,
00101110,
10202225,
000000000000000000000000000000000008000000000000,
#GOGOEND
10201021,
01201020,
10201021,
01202220,
7,
8022,
20201115,
000000000000000000000000000000000000000008000000,
20000002,
0022,
20000002,
0022,
11,
1011,
1111,
3330,
10110020,
10110020,
10110020,
10110020,
10401101,
0222,
7,
8,
30000003,
,
30000003,
01,
1111,
30303333,
4,
0022,
#GOGOSTART
30210201,
01201120,
10210111,
01201120,
10210203,
00102222,
10202225,
000000000000000000000000000000000008000000000000,
#GOGOEND
10012010,
01201010,
10012010,
01201010,
10012010,
01201010,
10012010,
01204044,
#END

COURSE:Easy
LEVEL:4
BALLOON:7,8,9
SCOREINIT:4270
SCOREDIFF:0
#START
,
,
2220,
#GOGOSTART
10001001,
0022,
10001001,
0022,
10001001,
0022,
10101001,
0022,
10001001,
0022,
10001001,
0022,
10001001,
0022,
10101005,
000000000000000000000000000008000000000000000000,
#GOGOEND
1,
1,
1,
1,
11,
11,
11,
1110,
10101001,
0110,
10101001,
0120,
10101001,
0110,
10101005,
000000000000000000000000000008000000000000000000,
12,
12,
12,
12,
10101001,
0110,
7,
8,
#GOGOSTART
30010102,
0011,
10000101,
0222,
10100103,
0102,
10101005,
000000000000000008000000000000000000000000000000,
30010102,
0011,
10000101,
0222,
10100103,
0102,
10101005,
000000000000000000000000000008000000000000000000,
#GOGOEND
10001001,
0112,
10001001,
0111,
7,
8,
10101005,
000000000000000000000000000000000000000008000000,
,
,
,
,
11,
11,
1111,
3330,
10010020,
10010020,
10010020,
10010020,
10101001,
0111,
7,
8,
30000003,
,
30000003,
,
11,
3333,
4,
,
#GOGOSTART
30010101,
0011,
10000101,
0222,
10100103,
0102,
10101005,
000000000000000000000000000008000000000000000000,
#GOGOEND
10010010,
01002020,
10010010,
01002020,
10010010,
01002020,
10010010,
01004040,
#END
