//TJADB Project
TITLE:Realize
TITLEJA:Realize
SUBTITLE:--Konomi Suzuki/Re:Zero -Kara Hajimeru Isekai Seikatsu-
SUBTITLEJA:「Re:ゼロから始める異世界生活」より
BPM:206
WAVE:Realize.ogg
OFFSET:-3.881
DEMOSTART:55.725

COURSE:Oni
LEVEL:7
BALLOON:10
SCOREINIT:740
SCOREDIFF:203
#START
03,
6,
000000000000000000000000000000000008000000000000,
6,
000000000000000000000000000000000008000000000000,
6,
000000000000000000000000000000000008000000000000,
33030303,
0011100020201010,
1,
2,
10010010,
2,
1,
2,
1011,
300000300000400000000000600000000000000008000000,
1010200010102011,
1010200010102011,
11221121,
1010200011112000,
1110202011102020,
1110202010102020,
11210123,
0040400011101110,
10102012,
12112112,
11102012,
11102012,
11102101,
21102210,
11102160,
000000000000000000000000000000000008000000000000,
2022,
20020020,
20020020,
1211,
30111122,
10121122,
30111122,
1020201110002000,
41141141,
14114141,
600000000000000000000000000000000000000000000008,
00000000111000
#GOGOSTART
30,
0010202011102020,
1110202011102010,
01201022,
1010202011102030,
01201022,
1010202011102030,
01220306,
000000000008000000000000100000100000000000300000,
0010202011102020,
1110202011102010,
01201022,
11221122,
1110202000101110,
22011110,
1110400011104000,
1110400011104000,
7008,
03223232,
32232230,
#GOGOEND
00000230,
1000201110102010,
10211222,
1000201110102010,
1000201010202220,
1000201110102010,
10211222,
3000222030300030,
#END

COURSE:Hard
LEVEL:6
BALLOON:8,9
SCOREINIT:3460
SCOREDIFF:0
#START
000000000000000000000000300000000000000000000000,
600000000000000000000000000000000000000000000000,
000000000000000000000000000000000080000000000000,
600000000000000000000000000000000000000000000000,
000000000000000000000000000000000080000000000000,
600000000000000000000000000000000000000000000000,
000000000000000000000000000000000080000000000000,
300000300000000000300000000000300000000000300000,
000000000000300000000000000000000000000000000000,
100000000000000000000000000000000000000000000000,
200000000000000000000000000000000000000000000000,
100000000000000000100000000000000000100000000000,
200000000000000000000000000000000000000000000000,
100000000000000000000000000000000000000000000000,
200000000000000000000000000000000000000000000000,
100000000000000000000000100000000000100000000000,
300000300000400000000000600000000000000080000000,
100000000000200000000000100000100000200000000000,
100000000000200000000000100000100000200000000000,
100000000000200000100000100000100000200000000000,
100000000000200000000000100100100000200000000000,
100000100000200000000000100000100000200000000000,
100000100000200000000000100000100000200000200000,
100000000000200000100000000000100000200000300000,
000000400000400000000000300000000000300000000000,
100000000000100000000000200000000000100000200000,
100000100000100000000000200000000000100000200000,
100000000000100000000000200000000000100000200000,
100000100000100000000000200000000000100000200000,
100000100000100000000000200000100000000000100000,
200000100000100000000000200000000000100000000000,
100000100000100000000000200000000000600000000000,
000000000000000000000000000000000080000000000000,
200000000000000000000000200000000000200000000000,
200000000000000000200000000000000000200000000000,
200000000000000000200000000000000000200000000000,
100000000000200000000000100000000000100000000000,
300000000000100000000000100000100000200000000000,
100000000000100000100000100000100000200000000000,
300000000000100000000000100000100000200000000000,
100000200000200000100000100000000000200000000000,
300000000000000000300000000000000000300000000000,
000000300000000000000000300000000000300000000000,
600000000000000000000000000000000000000000000080,
000000000000000000000000100000000000000000
#GOGOSTART
300000,
000000100000200000000000100100100000200000000000,
100000100000200000000000100100100000200000100000,
000000100000200000000000100000000000200000000000,
100000100000200000100000100000100000000000300000,
000000100000200000000000100000000000200000000000,
100000100000200000100000000000100000200000300000,
000000100000200000000000000000300000000000600000,
000000000080000000000000100000100000000000300000,
000000100000200000000000100100100000200000000000,
100000100000200000000000100100100000200000100000,
000000100000200000000000100000000000200000000000,
100000100000200000000000100000100000200000000000,
100000100000200000200000000000000000100000100000,
200000200000000000000000100000100000100000000000,
100000100000400000000000100000100000400000000000,
100000100000400000000000100000100000400000000000,
700000000000000000000000000000000000000800000000,
000000300000000000000000300000000000300000000000,
300000000000000000300000000000000000300000000000,
#GOGOEND
000000000000000000000000000000200000300000000000,
100000000000200000100000100000100000200000100000,
100000000000200000100000100000200000100000200000,
100000000000200000100000100000100000200000100000,
100000000000200000100000100000200000200200200000,
100000000000200000100000100000100000200000100000,
100000000000200000100000100000200000100000200000,
7,
8,
#END

COURSE:Normal
LEVEL:5
BALLOON:7,6,6,7
SCOREINIT:5940
SCOREDIFF:0
#START
000000000000000000000000300000000000000000000000,
600000000000000000000000000000000000000000000000,
000000000000000000000000000000000080000000000000,
600000000000000000000000000000000000000000000000,
000000000000000000000000000000000080000000000000,
600000000000000000000000000000000000000000000000,
000000000000000000000000000000000080000000000000,
700000000000000000000000000000000000000000800000,
000000000000300000000000000000000000000000000000,
100000000000000000000000000000000000000000000000,
200000000000000000000000000000000000000000000000,
100000000000000000000000000000000000000000000000,
200000000000000000000000000000000000000000000000,
100000000000000000000000000000000000000000000000,
200000000000000000000000000000000000000000000000,
100000000000000000000000100000000000000000000000,
700000000000000000000000000000000000800000000000,
100000000000000000000000100000100000000000000000,
100000000000100000000000100000000000100000000000,
100000000000000000000000100000100000000000000000,
100000000000000000000000200000200000200000000000,
100000000000100000000000100000000000100000000000,
100000000000000000000000100000100000100000000000,
600000000000000000000000000000000000000000000000,
000080000000300000000000300000000000300000000000,
100000000000000000000000200000000000200000000000,
100000000000100000000000200000000000200000000000,
100000000000000000000000200000000000200000000000,
100000000000100000000000200000200000200000000000,
100000000000000000000000400000000000000000000000,
300000000000000000000000400000000000000000000000,
300000000000000000000000000000000000600000000000,
000000000000000000000000000000000080000000000000,
200000000000000000000000200000000000200000000000,
200000000000000000200000000000000000200000000000,
200000000000000000200000000000000000200000000000,
100000000000000000000000200000000000000000000000,
300000000000100000000000100000000000100000000000,
100000000000100000000000100000100000100000000000,
300000000000100000000000100000000000100000000000,
100000100000100000000000100000000000100000000000,
600000000000000000000000000000000000000000000000,
000000000000000000000000000000000000000000000000,
000000000000000000000000000000000000000000000080,
000000000000000000000000100000000000000000
#GOGOSTART
300000,
000000000000200000000000100000000000200000000000,
100000000000100000000000100000000000000000100000,
000000100000100000000000000000000000200000000000,
100000000000100000000000100000000000000000300000,
000000100000100000000000000000000000200000000000,
100000000000000000100000000000100000000000300000,
000000100000100000000000000000300000000000600000,
000000000080000000000000100000100000000000300000,
000000000000200000000000100000000000200000000000,
100000000000100000000000100000000000000000100000,
000000100000100000000000000000000000200000000000,
100000000000100000000000100000000000200000000000,
100000000000100000100000000000000000100000000000,
100000100000000000000000100000000000200000000000,
100000000000000000000000300000000000000000000000,
300000000000000000000000300000000000000000000000,
700000000000000000000000000000000000800000000000,
000000600000000000000000000000000000000000000000,
000000000000000000000000000000000000000080000000,
#GOGOEND
000000000000000000000000000000000000000000000000,
100000000000100000000000100000100000100000000000,
100000000000100000000000200000000000200000000000,
100000000000100000000000100000100000100000000000,
100000000000100000000000200000000000200000000000,
100000000000100000000000100000100000100000000000,
100000000000100000000000200000000000200000000000,
9,
8,
#END

COURSE:Easy
LEVEL:3
BALLOON:5,3,4,5
SCOREINIT:11110
SCOREDIFF:0
#START
000000000000000000000000300000000000000000000000,
600000000000000000000000000000000000000000000000,
000000000000000000000000000080000000000000000000,
600000000000000000000000000000000000000000000000,
000000000000000000000000000080000000000000000000,
600000000000000000000000000000000000000000000000,
000000000000000000000000000080000000000000000000,
700000000000000000000000000000000000000000800000,
000000000000000000000000000000000000000000000000,
100000000000000000000000000000000000000000000000,
000000000000000000000000000000000000000000000000,
100000000000000000000000000000000000000000000000,
000000000000000000000000000000000000000000000000,
100000000000000000000000000000000000000000000000,
000000000000000000000000000000000000000000000000,
100000000000000000000000000000000000000000000000,
700000000000000000000000800000000000000000000000,
100000000000000000000000000000000000000000000000,
100000000000000000000000100000000000000000000000,
100000000000000000000000000000000000000000000000,
100000000000000000000000100000000000000000000000,
100000000000100000000000100000000000100000000000,
100000000000000000000000000000000000000000000000,
600000000000000000000000000000000000000000000000,
000080000000000000000000000000000000000000000000,
100000000000000000000000100000000000000000000000,
200000000000000000000000200000000000000000000000,
100000000000000000000000100000000000000000000000,
200000000000000000000000200000000000000000000000,
100000000000000000000000400000000000000000000000,
400000000000000000000000400000000000000000000000,
300000000000000000000000000000000000600000000000,
000000000000000000000000000080000000000000000000,
200000000000000000000000000000000000000000000000,
200000000000000000000000000000000000000000000000,
200000000000000000000000000000000000000000000000,
100000000000000000000000200000000000000000000000,
300000000000000000000000100000000000000000000000,
100000000000000000000000100000000000000000000000,
300000000000000000000000000000000000000000000000,
100000000000100000000000100000000000000000000000,
600000000000000000000000000000000000000000000000,
000000000000000000000000000000000000000000000000,
000000000000000000000000000000000000000000000080,
000000000000000000000000000000000000000000
#GOGOSTART
300000,
000000000000000000000000100000000000000000000000,
100000000000000000000000100000000000000000100000,
000000000000100000000000000000000000000000000000,
100000000000000000000000100000000000000000300000,
000000000000100000000000000000000000000000000000,
200000000000000000200000000000000000000000400000,
000000000000200000000000000000600000000000000000,
000000000080000000000000000000000000000000300000,
000000000000000000000000100000000000000000000000,
100000000000000000000000100000000000000000100000,
000000000000100000000000000000000000000000000000,
100000000000100000000000100000000000000000000000,
100000000000000000100000000000000000100000000000,
000000100000000000000000100000000000000000000000,
100000000000000000000000300000000000000000000000,
300000000000000000000000300000000000000000000000,
700000000000000000000000000000000000800000000000,
000000600000000000000000000000000000000000000000,
000000000000000000000000000000000000000080000000,
#GOGOEND
000000000000000000000000000000000000000000000000,
100000000000000000000000100000000000000000000000,
100000000000100000000000100000000000000000000000,
100000000000000000000000100000000000000000000000,
200000000000200000000000200000000000000000000000,
100000000000000000000000100000000000000000000000,
100000000000100000000000100000000000000000000000,
9,
8,
#END
