//TJADB Project
TITLE:Teo
TITLEJA:テオ
SUBTITLE:--Omoi feat. Hatsune Miku
SUBTITLEJA:Omoi feat.初音ミク
BPM:185
WAVE:Teo.ogg
OFFSET:-2.504
DEMOSTART:69.623

COURSE:Oni
LEVEL:8
BALLOON:12
SCOREINIT:1310
SCOREDIFF:0
#START
,
,
,
,
12101210,
12122212,
12101210,
3003004000221120,
#GOGOSTART
1020102010221020,
1020102011221020,
1020102010221020,
1020102022112020,
1020102010221020,
1020102011221020,
1020102010221020,
7008,
#GOGOEND
10211122,
1000201000112020,
10210120,
1000201000221020,
11211022,
10211120,
00210102,
10201122,
10211122,
1000201000112020,
10211020,
1000201000221020,
11211022,
10211020,
3434,
1020102010221120,
#GOGOSTART
1020102010221020,
1020102011221020,
1020102010221020,
1022102011221120,
#GOGOEND
1000201010112020,
1000201000112020,
10201120,
1000201000221020,
11211022,
10211120,
00210122,
1000200011102220,
1000201010112020,
1000201000112020,
10201120,
1000201000112022,
11211122,
1010201010102220,
1011101010111010,
3332,
#GOGOSTART
1000222011102220,
1110222011111020,
1000222011102220,
1110222022222020,
1000222011102220,
1110222011111020,
1444,
600000000000000000000000000000000000000008000000,
1000102220111022,
2011102022222020,
1000102220111022,
2011102011111020,
1000102220111022,
2011102022222020,
1444,
600000000000000000000000000000000000000008000000,
#GOGOEND
1000101000222010,
1000102010111020,
1000101020222010,
1000102010111020,
1000101000222010,
0000102010221020,
#GOGOSTART
1000112030001120,
3000201010111110,
#GOGOEND
1010001000222010,
10111212,
1010001000222010,
10111212,
1000101000222010,
00111212,
1000112030001120,
3020101110111010,
#GOGOSTART
1020102010221020,
1020102011221020,
1020102010221020,
1020102022112020,
1020102010221020,
1020102011221020,
1020102010221020,
100000200000100000200000500000000000000008000000,
1020112010221020,
1020112011221020,
1020112010221020,
1020112022112020,
1020112010221020,
1020112011221020,
1020112010221020,
1022112222222220,
#GOGOEND
#END

COURSE:Hard
LEVEL:6
BALLOON:9,9,9,9
SCOREINIT:2250
SCOREDIFF:0
#START
000000000000000000000000000000000000000000000000,
000000000000000000000000000000000000000000000000,
000000000000000000000000000000000000000000000000,
000000000000000000000000000000000000000000000000,
100000000000100000000000100000000000100000000000,
100000000000100000000000200000100000100000000000,
100000000000100000000000100000000000100000000000,
300000000300000000400000000000000000000000000000,
#GOGOSTART
100000000000100000200000100000000000100000200000,
100000000000100000200000100000100000100000200000,
100000000000100000200000100000000000100000200000,
100000000000100000200000200000200000100000200000,
100000000000100000200000100000000000100000200000,
100000000000100000200000100000100000100000200000,
100000000000100000200000100000000000100000200000,
700000000000000000000000000000800000000000000000,
#GOGOEND
100000000000000000100000100000000000200000000000,
100000000000200000100000000000000000000000000000,
100000000000200000100000000000000000200000000000,
100000000000200000100000000000000000000000000000,
100000000000200000000000100000000000200000200000,
100000000000200000000000100000000000200000000000,
000000000000700000000000000000000000000000800000,
000000000000000000000000000000000000000000000000,
100000000000000000100000100000000000200000000000,
100000000000200000100000000000000000000000000000,
100000000000200000100000100000000000200000000000,
100000000000200000100000000000000000000000000000,
100000000000200000000000100000000000200000200000,
100000000000200000000000100000000000200000000000,
300000000000400000000000300000000000400000000000,
700000000000000000000000000000800000000000000000,
#GOGOSTART
100000000000100000200000100000000000100000200000,
100000000000100000200000100000100000100000200000,
100000000000100000200000100000000000100000200000,
100000000000100000200000200200200000200000200000,
#GOGOEND
100000000000000000100000100000000000200000000000,
100000000000200000100000000000000000000000000000,
100000000000200000000000100000000000200000000000,
100000000000200000100000000000000000000000000000,
100000000000200000000000100000000000200000200000,
100000000000200000100000100000000000200000000000,
000000000000700000000000000000000000000000800000,
000000000000000000000000100000000000200000000000,
100000000000000000100000100000000000200000000000,
100000000000200000100000000000000000000000000000,
100000000000200000000000100000000000200000000000,
100000000000200000100000000000000000000000000000,
100000000000200000100000100000000000200000200000,
100000000000200000000000100000000000000000200000,
100000000000100000100000100000000000100000100000,
300000000000300000000000300000000000200000000000,
#GOGOSTART
100000000000100000200000100000200000100000200000,
100000200000100000200000100000000000100000000000,
100000000000100000200000100000200000100000200000,
100000200000100000200000200000000000200000000000,
100000000000100000200000100000200000100000200000,
100000200000100000200000100000000000100000000000,
100000000000400000000000400000000000400000000000,
600000000000000000000000000000000008000000000000,
100000000000200000200000100000100000200000200000,
100000100000200000200000100000000000200000200000,
100000000000200000200000100000100000200000200000,
100000100000200000200000200000000000200000200000,
100000000000200000200000100000100000200000200000,
100000100000200000200000100000100000200000000000,
100000000000400000000000400000000000400000000000,
600000000000000000000000000000000008000000000000,
#GOGOEND
100000000000100000100000000000200000000000100000,
100000000000100000000000100000000000200000000000,
100000000000100000100000000000200000000000100000,
100000000000100000000000100000000000200000000000,
100000000000100000100000000000200000000000100000,
000000000000100000000000100000000000200000000000,
#GOGOSTART
100000000000400000000000300000000000400000000000,
300000000000000000000000100000000000200000000000,
#GOGOEND
100000100000000000100000000000200000000000100000,
100000000000100000000000100000000000200000000000,
100000100000000000100000000000200000000000100000,
100000000000100000000000100000000000200000000000,
100000000000100000100000000000200000000000100000,
000000000000100000000000100000000000200000000000,
100000000000400000000000300000000000400000000000,
300000000000000000000000400000000000000000000000,
#GOGOSTART
600000000000000000000000000000000000000000000000,
000000000000000000000000000000000000000008000000,
100000000000100000200000100000000000100000200000,
100000000000100000200000200000200000100000200000,
100000000000100000200000100000000000100000200000,
100000000000100000200000100000100000100000200000,
100000000000100000200000100000000000100000200000,
500000000000000000000000000000000000000080000000,
100000000000100000200000100000000000100000200000,
100000000000100000200000100100100000100000200000,
100000000000100000200000100000000000100000200000,
100000000000100000200000200200200000100000200000,
100000000000100000200000100000000000100000200000,
100000000000100000200000100100100000100000200000,
100000000000100000200000100000000000100000200000,
100000000000100000200000200200200000200200200000,
#GOGOEND
#END

COURSE:Normal
LEVEL:5
BALLOON:3,6,6,6,6
SCOREINIT:4320
SCOREDIFF:0
#START
000000000000000000000000000000000000000000000000,
000000000000000000000000000000000000000000000000,
000000000000000000000000000000000000000000000000,
000000000000000000000000000000000000000000000000,
100000000000000000000000100000000000000000000000,
100000000000000000000000200000000000100000000000,
100000000000000000000000100000000000000000000000,
700000000000000800000000000000000000000000000000,
#GOGOSTART
100000000000000000000000100000000000000000000000,
100000000000000000000000200000000000100000000000,
100000000000000000000000100000000000000000000000,
100000000000000000000000200000000000100000000000,
100000000000000000000000100000000000000000000000,
100000000000000000000000200000000000100000000000,
100000000000000000000000100000000000000000000000,
700000000000000000000000000000800000000000000000,
#GOGOEND
100000000000000000000000000000000000000000000000,
100000000000000000100000000000000000000000000000,
100000000000000000000000000000000000000000000000,
100000000000000000100000000000000000000000000000,
100000000000000000000000100000000000000000000000,
100000000000200000000000100000000000000000000000,
000000000000700000000000000000000000000000800000,
000000000000000000000000000000000000000000000000,
100000000000000000000000000000000000000000000000,
100000000000000000100000000000000000000000000000,
100000000000000000000000000000000000000000000000,
100000000000000000100000000000000000000000000000,
100000000000000000000000100000000000000000000000,
100000000000200000000000100000000000000000000000,
300000000000300000000000300000000000300000000000,
700000000000000000000000000000800000000000000000,
#GOGOSTART
100000000000000000000000100000000000000000000000,
100000000000000000000000200000000000100000000000,
100000000000000000000000100000000000000000000000,
100000000000000000000000200000000000200000000000,
#GOGOEND
100000000000000000000000000000000000000000000000,
100000000000000000100000000000000000000000000000,
100000000000000000000000000000000000000000000000,
100000000000000000100000000000000000000000000000,
100000000000000000000000100000000000000000000000,
100000000000200000000000100000000000000000000000,
000000000000700000000000000000000000000000800000,
000000000000000000000000100000000000000000000000,
100000000000000000000000000000000000000000000000,
100000000000000000100000000000000000000000000000,
100000000000000000000000000000000000000000000000,
100000000000000000100000000000000000000000000000,
100000000000000000000000100000000000000000000000,
100000000000200000000000100000000000000000000000,
100000000000100000000000100000000000000000000000,
300000000000300000000000300000000000000000000000,
#GOGOSTART
100000000000100000100000100000000000100000000000,
100000000000100000000000200000000000000000000000,
100000000000100000100000100000000000100000000000,
100000000000100000000000200000000000000000000000,
100000000000100000100000100000000000100000000000,
100000000000100000000000200000000000000000000000,
100000000000400000000000400000000000400000000000,
600000000000000000000000000000000008000000000000,
100000000000100000100000100000000000100000000000,
100000000000200000000000200000000000000000000000,
100000000000100000100000100000000000100000000000,
100000000000200000000000200000000000000000000000,
100000000000100000100000100000000000100000000000,
100000000000200000000000200000000000000000000000,
100000000000400000000000400000000000400000000000,
600000000000000000000000000000000008000000000000,
#GOGOEND
100000000000000000100000000000000000000000000000,
100000000000000000000000200000000000200000000000,
100000000000000000100000000000000000000000000000,
100000000000000000000000200000000000200000000000,
100000000000000000100000000000000000000000100000,
000000000000100000000000200000000000200000000000,
#GOGOSTART
100000000000400000000000300000000000400000000000,
300000000000000000000000200000000000000000000000,
#GOGOEND
100000000000000000100000000000000000000000000000,
100000000000000000000000200000000000200000000000,
100000000000000000100000000000000000000000000000,
100000000000000000000000200000000000200000000000,
100000000000000000100000000000000000000000100000,
000000000000100000000000200000000000200000000000,
100000000000400000000000300000000000400000000000,
300000000000000000000000400000000000000000000000,
#GOGOSTART
600000000000000000000000000000000000000000000000,
000000000000000000000000000000000000000008000000,
100000000000000000000000100000000000000000000000,
100000000000000000000000200000000000100000000000,
100000000000000000000000100000000000000000000000,
100000000000000000000000200000000000100000000000,
100000000000000000000000100000000000100000000000,
500000000000000000000000000000000000000080000000,
100000000000000000000000100000000000100000000000,
100000000000100000000000200000000000100000000000,
100000000000000000000000100000000000100000000000,
100000000000100000000000200000000000100000000000,
100000000000000000000000100000000000100000000000,
100000000000100000000000200000000000100000000000,
100000000000000000000000100000000000100000000000,
100000000000100000000000200000000000200000000000,
#GOGOEND
#END

COURSE:Easy
LEVEL:2
BALLOON:2,4,5,4,5,5,5
SCOREINIT:7100
SCOREDIFF:0
#START
000000000000000000000000000000000000000000000000,
000000000000000000000000000000000000000000000000,
000000000000000000000000000000000000000000000000,
000000000000000000000000000000000000000000000000,
100000000000000000000000000000000000000000000000,
100000000000000000000000100000000000000000000000,
100000000000000000000000000000000000000000000000,
700000000000000800000000000000000000000000000000,
#GOGOSTART
100000000000000000000000000000000000000000000000,
100000000000000000000000100000000000000000000000,
100000000000000000000000000000000000000000000000,
200000000000000000000000200000000000000000000000,
100000000000000000000000000000000000000000000000,
100000000000000000000000100000000000000000000000,
100000000000000000000000000000000000000000000000,
700000000000000000000000000000800000000000000000,
#GOGOEND
100000000000000000000000000000000000000000000000,
100000000000000000000000000000000000000000000000,
100000000000000000000000000000000000000000000000,
100000000000000000000000000000000000000000000000,
100000000000000000000000100000000000000000000000,
100000000000000000000000100000000000000000000000,
000000000000700000000000000000000000000000800000,
000000000000000000000000000000000000000000000000,
100000000000000000000000000000000000000000000000,
100000000000000000000000000000000000000000000000,
100000000000000000000000000000000000000000000000,
100000000000000000000000000000000000000000000000,
100000000000000000000000100000000000000000000000,
200000000000000000000000200000000000000000000000,
300000000000000000000000300000000000000000000000,
700000000000000000000000000000800000000000000000,
#GOGOSTART
100000000000000000000000000000000000000000000000,
100000000000000000000000100000000000000000000000,
100000000000000000000000000000000000000000000000,
200000000000000000000000200000000000000000000000,
#GOGOEND
100000000000000000000000000000000000000000000000,
100000000000000000000000000000000000000000000000,
100000000000000000000000100000000000000000000000,
100000000000000000000000000000000000000000000000,
100000000000000000000000100000000000000000000000,
100000000000000000000000100000000000000000000000,
000000000000700000000000000000000000000000800000,
000000000000000000000000000000000000000000000000,
100000000000000000000000000000000000000000000000,
100000000000000000000000000000000000000000000000,
100000000000000000000000100000000000000000000000,
100000000000000000000000000000000000000000000000,
100000000000000000000000100000000000000000000000,
200000000000000000000000200000000000000000000000,
100000000000100000000000100000000000000000000000,
300000000000000000000000000000000000000000000000,
#GOGOSTART
100000000000000000000000100000000000000000000000,
100000000000100000000000100000000000000000000000,
100000000000000000000000100000000000000000000000,
200000000000200000000000200000000000000000000000,
100000000000000000000000100000000000000000000000,
100000000000100000000000100000000000000000000000,
100000000000000000000000400000000000000000000000,
600000000000000000000000000008000000000000000000,
100000000000000000000000100000000000000000000000,
100000000000100000000000100000000000000000000000,
100000000000000000000000100000000000000000000000,
200000000000200000000000200000000000000000000000,
100000000000000000000000100000000000000000000000,
100000000000100000000000100000000000000000000000,
100000000000000000000000400000000000000000000000,
600000000000000000000000000008000000000000000000,
#GOGOEND
100000000000000000000000000000000000000000000000,
100000000000000000000000200000000000000000000000,
100000000000000000000000000000000000000000000000,
100000000000000000000000200000000000000000000000,
100000000000000000000000000000000000000000700000,
000000000000000000000000000000000000000000800000,
#GOGOSTART
000000000000000000000000300000000000000000000000,
300000000000000000000000000000000000000000000000,
#GOGOEND
100000000000000000000000000000000000000000000000,
100000000000000000000000200000000000000000000000,
100000000000000000000000000000000000000000000000,
100000000000000000000000200000000000000000000000,
100000000000000000000000000000000000000000700000,
000000000000000000000000000000000000000000800000,
000000000000000000000000300000000000000000000000,
300000000000000000000000400000000000000000000000,
#GOGOSTART
600000000000000000000000000000000000000000000000,
000000000000000000000000000008000000000000000000,
100000000000000000000000000000000000000000000000,
200000000000000000000000200000000000000000000000,
100000000000000000000000000000000000000000000000,
100000000000000000000000100000000000000000000000,
100000000000000000000000000000000000000000000000,
500000000000000000000000000080000000000000000000,
100000000000000000000000100000000000000000000000,
100000000000000000000000100000000000100000000000,
100000000000000000000000100000000000000000000000,
200000000000000000000000200000000000200000000000,
100000000000000000000000100000000000000000000000,
100000000000000000000000100000000000100000000000,
100000000000000000000000100000000000000000000000,
200000000000000000000000200000000000200000000000,
#GOGOEND
#END
