//TJADB Project
TITLE:AmaterasuJK
TITLEJA:あまてらすJK
SUBTITLE:--Takahiro Akuta feat. Sachiko
SUBTITLEJA:Takahiro Akuta feat. さちこ
BPM:190
WAVE:AmaterasuJK.ogg
OFFSET:-1.305
DEMOSTART:46.770

COURSE:Oni
LEVEL:8
SCOREINIT:1420
SCOREDIFF:0
#START
300000000000000000300000300000000000000000300000,
300000000300000000300000300000400000400000000000,
#GOGOSTART
100000100100100000200000100000000000200000000000,
100000100100100000200000100000000000200000000000,
200200200000100100100000200200200000100100100000,
100100200000100000200000100000000000200200200200,
100000100100100000200000100000000000200000000000,
100000100100100000200000100000000000200000000000,
100100100000200200200000100100100000200200200000,
100100100100200000100000200200200200100000200000,
500000000000000000000000000000000000000000000008,
000000000000000000000000000000200200200000000000,
#GOGOEND
100000100000100000200000000000200000100000100000,
000000100100100000200000000000200000100000200000,
100000100000100000200000000000200000100000100000,
000000100100100000200000000000200000000000100000,
100000100000100000200000000000200000100000100000,
000000100100100000200000000000200000100000200000,
100000100000100000200000000000100000200000100000,
000000100100100000200000100000100100200000100000,
100000100000100000200000000000200000100000200000,
100000100100100000200000000000200000100000200000,
100000100100100000200000000000200000100000200000,
000000200200100000200000000000200000100000200000,
100000100100100000200000000000200000100000100000,
000000100100100000200000000000100100100000200000,
000000200200100000200000100000200200100000500000,
000000000000000008000000000000000000100000000000,
100000100000200000100000100000000000200000200200,
100000100000200000100000100000200200200000200000,
100000100000200000100000200000200000100000200000,
100000100000000000100000100000200200100000000000,
300000000300000000300000300000000000200000300000,
300000000300000000300000300000200200200000100000,
100100100000200000100100100000100000100000500000,
000000000000000008000000200000200000200000200000,
#GOGOSTART
100000100100200000200000100000200100100000200000,
000000100100200000200000000000100100100000200000,
100000100100200000200000100000200100100000200000,
000000100100100000200200200000100100100000200000,
100000100200200000200000100000200200100000200000,
000000200200100000200000000000200200200000200000,
100000100100200000100000000000100000000000500000,
000000000008000000000000200200200000200000000000,
100000100100200000200000100000200100100000200000,
000000100100200000200000000000100100100000200000,
100000100100200000200000100000100100200000100000,
00000010000050000000000000000800000100000000000,
100000200200200000100000100200200000200000300000,
300000000300000000300000300000200200200000100000,
100000200000100200100200100000100100200000300000,
300000000300000000300000300000400000400000000000,
200200100100200200100100200200100100100100100000,
100000100100100000200000100000200100200000200200,
100000100100200000100100100000200200100000200000,
200000202020100000200000200100200000200200100000,
100100100100100000200000100000100100200000200000,
100100100100100000200000100000200200100000100000,
100000100100200000100100200200100100200200200000,
200000100200100000100000200000200000100000100000,
#GOGOEND
100000000000000000200000000000000000200000000000,
200000000000000000200000000000000000200000000000,
200000000000000000000000200000000000000000000000,
200000200000000000200000000000000000200000000000,
300000000300000000300000300000000000200000300000,
300000000300000000300000300000200200200000100000,
100100100000200000100100100000100000100000500000,
000000000000000008000000200000200000200000200000,
200000000000000000000000200000000000000000200000,
000000200000000000200000000000400000400000400000,
#GOGOSTART
100000100100200000200000100000200100100000200000,
000000100100200000200000100100100100100000200000,
100000100100200000200000100000200100100000200000,
000000100100200000200000100100100100200000200000,
100000100100200000200200100000100100200000100000,
000000200100100000200100100200200100100100200000,
100000100100200000100000000000100000000000500000,
000000000008000000000000200100200100200000000000,
100000100100200000200000100000200100100000200000,
000000100100200000200000100100100100200200100100,
100000100100200000200200100000100100200000100000,
000000100000500000000000000008000000100000000000,
100000200200200000100000100200200000200000300000,
300000000300000000300000300000200200200000100000,
100200200000100200100200100000100100200000300000,
300000000300000000300000300000400000400000000000,
100000100100200200100100200000100100200200100100,
200000200200200000200200200200100000200000300000,
000000000000000000000000000000000000200200100000,
#GOGOEND
#END

COURSE:Hard
LEVEL:5
SCOREINIT:2400
SCOREDIFF:0
#START
300000000000000000300000300000000000000000300000,
300000000300000000300000300000000000400000000000,
#GOGOSTART
100000100000100000100000100000000000200000000000,
100000100000100000100000100000000000100000000000,
200000000000100000000000200000000000100000000000,
100000100000100000100000100000000000000000000000,
100000100000100000100000100000000000200000000000,
100000100000100000100000100000000000100000000000,
100000000000200000000000100000000000200000000000,
100000100000100000000000200000200000100000000000,
500000000000000000000000000000000000000000000080,
000000000000000000000000000000200000200000000000,
#GOGOEND
100000000000000000100000000000200000000000100000,
000000100000000000200000000000200000000000200000,
100000000000000000100000000000200000000000100000,
000000100000000000200000000000200000000000200000,
100000000000000000100000000000200000000000100000,
000000100000000000200000000000200000000000200000,
100000000000000000100000000000100000000000100000,
000000200000200000200000200000200000200000000000,
100000100000000000100000000000200000000000200000,
100000100000000000200000000000200000000000200000,
100000100000000000200000000000200000000000100000,
000000100000000000200000000000200000000000200000,
100000100000000000200000000000200000000000100000,
000000200000000000200000000000100000000000100000,
000000100000100000000000100000100000100000500000,
000000000000000080000000000000000000100000000000,
100000100000200000100000100000000000200000000000,
100000100000200000100000100000000000200000000000,
100000000000100000000000200000200000200000000000,
100000100000000000100000200000100000100000000000,
300000000300000000300000300000000000000000300000,
300000000300000000300000300000000000000000100000,
100000100000000000100000000000100000100000500000,
000000000000000080000000200000200000200000200000,
#GOGOSTART
100000200000100000000000100000200000100000200000,
000000100000000000200000000000100000100000200000,
100000000000100000200000100000000000100000100000,
000000200000000000100000000000200200200000100000,
100000000000100000000000100000200000100000200000,
000000200000100000200000000000200000000000100000,
100000000000100000100000000000100000000000500000,
000000000080000000000000200000000000200000000000,
100000200000100000000000100000200000100000200000,
000000100000000000200000000000100000100000200000,
100000000000100000200000000000200000000000100000,
000000100000500000000000000080000000100000000000,
200000000000000000200000200000000000000000300000,
300000000300000000300000300000000000000000200000,
200000000000000000200000200000000000000000300000,
300000000300000000300000300000400000400000000000,
100000100100100000100000100000000000200000000000,
100000100000100000100000100000000000200000000000,
100000000000100000000000200000000000200000000000,
100000100100100000100000100000000000000000000000,
100000200000100000200000100000000000100000000000,
200000100000200000100000200000000000200000000000,
100000000000200000000000100000000000200000000000,
200000200000100000100000200000200000100000000000,
#GOGOEND
100000000000000000000000000000000000200000000000,
200000000000000000000000000000000000200000000000,
200000000000000000000000200000000000000000000000,
200000000000000000000000000000000000200000000000,
300000000300000000300000300000000000000000300000,
300000000300000000300000300000000000000000100000,
100000100000000000100000000000100000100000500000,
000000000000000080000000000000000000000000000000,
200000000000000000000000200000000000000000200000,
000000200000000000200000000000400000400000400000,
#GOGOSTART
100000200000100000000000100000200000100000200000,
000000100000000000200000000000100000100000200000,
100000000000100000200000100000000000100000100000,
000000200000000000100000000000200200200000100000,
100000000000100000200000100000000000100000200000,
000000200000100000200000000000200000000000100000,
100000000000100000100000000000100000000000500000,
000000000080000000000000200000000000200000000000,
100000200000100000000000100000200000100000200000,
000000100000000000200000000000100000100000200000,
100000000000100000200000000000200000000000100000,
000000100000500000000000000080000000100000000000,
200000000000000000200000200000000000000000300000,
300000000300000000300000300000000000000000200000,
200000000000000000200000200000000000000000300000,
300000000300000000300000300000400000400000000000,
100000100100100000100000100000100000100000000000,
100000100100100000100000200000100000200000600000,
000000000000000000000000000000000000000008000000,
#GOGOEND
#END

COURSE:Normal
LEVEL:4
SCOREINIT:3940
SCOREDIFF:0
#START
300000000000000000300000300000000000000000000000,
300000000000000000300000300000000000000000000000,
#GOGOSTART
100000000000100000000000100000000000000000000000,
100000000000100000000000100000000000000000000000,
100000000000200000000000100000000000200000000000,
100000000000100000100000100000000000000000000000,
100000000000100000000000100000000000000000000000,
100000000000100000000000100000000000000000000000,
100000000000100000000000200000000000200000000000,
100000000000100000000000200000200000200000000000,
500000000000000000000000000000000000000000000080,
000000000000000000000000000000000000000000000000,
#GOGOEND
100000000000000000000000000000000000000000100000,
000000000000000000100000000000000000000000000000,
100000000000000000000000000000000000000000100000,
000000000000000000100000000000000000000000000000,
100000000000000000000000000000000000000000100000,
000000000000000000100000000000000000000000000000,
100000000000000000000000000000000000000000200000,
000000000000200000000000200000200000200000000000,
100000000000000000100000000000000000000000200000,
000000000000000000200000000000000000000000000000,
100000000000000000100000000000000000000000200000,
000000000000000000200000000000000000000000000000,
100000000000000000100000000000000000000000200000,
000000000000000000200000000000000000000000100000,
000000000000100000000000100000000000100000500000,
000000000000000000000080000000000000000000000000,
100000000000000000100000000000000000200000000000,
100000000000000000100000000000000000200000000000,
100000000000100000000000200000000000200000000000,
100000100000000000100000000000000000100000000000,
300000000000000000300000300000000000000000000000,
300000000000000000300000300000000000000000000000,
100000100000000000100000000000100000100000500000,
000000000000000080000000000000000000000000000000,
#GOGOSTART
100000000000100000000000100000000000000000200000,
000000100000000000200000000000000000000000000000,
100000000000100000000000100000000000000000100000,
000000200000000000100000000000000000000000000000,
100000000000100000000000100000000000000000100000,
000000200000000000100000000000200000000000100000,
100000000000100000100000000000100000000000500000,
000000000080000000000000000000000000000000000000,
100000000000100000000000100000000000000000200000,
000000100000000000200000000000000000000000000000,
100000000000100000100000000000100000000000200000,
000000200000200000000000000000000000100000000000,
300000000000000000300000300000000000000000000000,
400000000000000000300000300000000000000000000000,
300000000000000000300000300000000000000000000000,
400000000000000000300000300000000000000000000000,
100000000000100000000000100000000000000000000000,
100000100000100000000000100000000000000000000000,
100000000000200000000000100000000000200000000000,
100000100000100000000000100000000000000000000000,
100000000000100000100000100000000000000000000000,
100000000000100000100000100000000000000000000000,
100000000000200000000000100000000000200000000000,
100000100000100000000000200000000000200000000000,
#GOGOEND
100000000000000000000000000000000000000000000000,
200000000000000000000000000000000000200000000000,
200000000000000000000000200000000000000000000000,
200000000000000000000000000000000000000000000000,
300000000000000000300000300000000000000000000000,
300000000000000000300000300000000000000000000000,
100000100000000000100000000000100000100000500000,
000000000000000080000000000000000000000000000000,
200000000000000000000000000000000000000000200000,
000000000000000000200000000000000000000000000000,
#GOGOSTART
100000000000100000000000100000000000000000200000,
000000100000000000200000000000000000000000000000,
100000000000100000000000100000000000000000100000,
000000200000000000100000000000000000000000000000,
100000000000100000000000100000000000000000100000,
000000200000000000100000000000200000000000100000,
100000000000100000100000000000100000000000500000,
000000000080000000000000000000000000000000000000,
100000000000100000000000100000000000000000200000,
000000100000000000200000000000000000000000000000,
100000000000100000100000000000100000000000200000,
000000200000200000000000000000000000100000000000,
300000000000000000300000300000000000000000000000,
400000000000000000300000300000000000000000000000,
300000000000000000300000300000000000000000000000,
400000000000000000300000300000000000000000000000,
100000000000100000000000100000100000100000000000,
100000000000100000000000100000100000100000500000,
000000000000000000000000000000000000000008000000,
#GOGOEND
#END

COURSE:Easy
LEVEL:4
SCOREINIT:6160
SCOREDIFF:0
#START
300000000000000000000000000000000000000000000000,
300000000000000000000000300000000000000000000000,
#GOGOSTART
100000000000000000000000100000000000000000000000,
100000000000100000000000100000000000000000000000,
100000000000100000000000100000000000000000000000,
200000000000000000000000200000000000000000000000,
100000000000000000000000100000000000000000000000,
100000000000100000000000100000000000000000000000,
100000000000100000000000100000000000000000000000,
200000000000000000000000200000000000000000000000,
500000000000000000000000000000000000000000000080,
000000000000000000000000000000000000000000000000,
#GOGOEND
100000000000000000000000000000000000000000100000,
000000000000000000000000000000000000000000000000,
100000000000000000000000000000000000000000100000,
000000000000000000100000000000000000000000000000,
100000000000000000000000000000000000000000100000,
000000000000000000000000000000000000000000000000,
100000000000000000000000000000000000000000100000,
000000000000000000000000200000000000000000000000,
100000000000000000000000000000000000000000100000,
000000000000000000000000000000000000000000000000,
100000000000000000000000000000000000000000200000,
000000000000000000200000000000000000000000000000,
100000000000000000000000000000000000000000100000,
000000000000000000000000000000000000000000100000,
000000000000000000000000100000000000000000500000,
000000000000000080000000000000000000000000000000,
100000000000000000100000000000000000000000000000,
200000000000000000200000000000000000000000000000,
100000000000000000000000100000000000000000000000,
200000000000000000000000000000000000000000000000,
300000000000000000000000000000000000000000000000,
400000000000000000000000000000000000000000000000,
100000000000000000100000000000000000000000500000,
000000000000000080000000000000000000000000000000,
#GOGOSTART
100000000000100000000000100000000000000000200000,
000000000000000000200000000000000000000000000000,
100000000000100000000000100000000000000000200000,
000000000000000000200000000000000000000000000000,
100000000000100000000000100000000000000000100000,
000000000000000000100000000000000000000000000000,
300000000000000000300000000000000000000000600000,
000000000080000000000000000000000000000000000000,
100000000000100000000000100000000000000000200000,
000000000000000000200000000000000000000000000000,
100000000000000000200000000000200000000000200000,
000000000000200000000000000000000000000000000000,
300000000000000000000000300000000000000000000000,
400000000000000000000000300000000000000000000000,
300000000000000000000000300000000000000000000000,
400000000000000000000000300000000000000000000000,
100000000000000000000000100000000000000000000000,
100000000000100000000000100000000000000000000000,
100000000000100000000000200000000000200000000000,
100000000000100000000000100000000000000000000000,
100000000000100000000000100000000000000000000000,
100000000000100000000000100000000000000000000000,
100000000000000000000000200000000000000000000000,
100000000000100000000000100000000000000000000000,
#GOGOEND
100000000000000000000000000000000000000000000000,
200000000000000000000000000000000000000000000000,
200000000000000000000000000000000000000000000000,
200000000000000000000000000000000000000000000000,
300000000000000000000000000000000000000000000000,
300000000000000000000000000000000000000000000000,
100000000000000000100000000000000000000000500000,
000000000000000080000000000000000000000000000000,
200000000000000000000000000000000000000000200000,
000000000000000000000000000000000000000000000000,
#GOGOSTART
100000000000100000000000100000000000000000200000,
000000000000000000200000000000000000000000000000,
100000000000100000000000100000000000000000200000,
000000000000000000200000000000000000000000000000,
100000000000100000000000100000000000000000100000,
000000000000000000100000000000100000000000000000,
300000000000000000300000000000000000000000600000,
000000000080000000000000000000000000000000000000,
100000000000100000000000100000000000000000200000,
000000000000000000200000000000000000000000000000,
100000000000000000200000000000000000000000200000,
000000000000200000000000000000000000000000000000,
300000000000000000000000300000000000000000000000,
400000000000000000000000300000000000000000000000,
300000000000000000000000300000000000000000000000,
400000000000000000000000300000000000000000000000,
100000000000100000000000100000000000000000000000,
100000000000100000000000100000000000000000500000,
000000000000000000000000000000000000000008000000,
#GOGOEND
#END
