//TJADB Project
TITLE:twinkle night
TITLEJA:twinkle night (feat. somunia)
SUBTITLE:--nyankobrq & yaca feat. somunia
BPM:173.93
WAVE:twinkle night.ogg
OFFSET:-1.370
DEMOSTART:13.446

COURSE:Edit
LEVEL:9
SCOREINIT:1230
SCOREDIFF:0
#START
000000000000000000000000000000000000000000000000,
200000000000000000000000000000000000000000000000,
200000000000000000000000000000000000000000000000,
200000000000000000000000000000000000000000000000,
200000000000000000000000100000100000200000100200,
#GOGOSTART
100000000000200000200200100000200200100000200000,
100000100000200000200200100000200200100000200000,
100000100000200000200200100000200200100000200000,
300000000000300000000000300000000000200000200200,
100000202020100000100000200200100200100000100200,
100200100000200000200200200100100000200000100200,
100000202020100000100000200200100200100000100200,
100200100000200000200200200100100000200000100200,
100000202020100000100000200200100200100000100200,
100200100000200000200200200100100000200000100200,
100000202020100000100000200200100200100000100200,
100000200200100000200200100000200000200200200200,
#GOGOEND
100000000200200000100000000000100000200000100200,
100000000100200000200000100000100000200000100200,
100000000200200000100000000000100000200000100200,
100000000100200000200000100000100000200200100200,
100000200200200000100200100000100000200000100200,
100000000100200000200000100000100000200000100200,
100000200200200000100200100000100000200000100200,
100000000100200000200000100000100000200200100100,
200000200000200000100000200100100000200000100100,
200000200000200000100000200200100000200000100200,
200000200000200000100000200100100000200000100100,
200000200000100000200100100000200200100000200200,
200000200000200000100000200100100000200000100100,
200000200000200000100000200200100000200000100200,
200000200000200000100000200100100000200000100100,
200000000000100000200000100200200200100000000000,
200000000000200000100200100200100000200000200000,
100000000000000000100000200000000000100000100000,
200200200200100000200000200000000000100000100000,
200000000000200000100100200000200000100100200000,
100000200200100000200000100200100000200000100000,
200000100100200000100000200200200000200000100000,
200000202020100000200000100000100000200100200000,
100000200200100000100000200200200200200000100000,
100000200200100000200000100200100000200000100000,
200000100100200000100000200200200000200000100000,
202020200000100000200000100000100000200100200000,
100000200200100000100000200200200200200000100000,
100000200200100000200000100000100100200000100000,
200000100100200000100000200200200000200000100000,
200000202020100000200000100000100000200100200000,
100000000000000000000000000000100000200000000000,
202020200000200000200000100000200200200000200000,
100000100200100000200000100200100100200000100000,
200200100000200000200000100000200200200000200000,
100000100100200000100000100100100000200000100000,
202020200000200000200000100000200200200000200000,
100000100200100000200000100200100100200000100000,
200200100000200000200000100000200200200000200000,
100000100200100000202020200000100000200200200200,
202020200000200000200000100000200200200000200000,
100000100200100000200000100200100100200000100000,
200200100000200000200000100000200200200000200000,
100000100100200000100000100100100000200000100000,
202020200000200000200000100000200200200000200000,
100000100200100000200000100200100100200000100000,
200200100000200000200000100000200200200000200000,
100000000000100000200200200000200000200000000000,
#GOGOSTART
100000202020100000100000200200100200100000100200,
100200100000200000200200200100100000200000100200,
100000202020100000100000200200100200100000100200,
100200100000200000200200200100100000200000100200,
100000202020100000100000200200100200100000100200,
100200100000200000200200200100100000200000100200,
100000202020100000100000200200100200100000100200,
100000100200100000100200100200200200100000200000,
100000202020100000100000200200100200100000100200,
100200100000200000200200200100100000200000100200,
100000202020100000100000200200100200100000100200,
100200100000200000200200200100100000200000100200,
100000202020100000100000200200100200100000100200,
100200100000200000200200200100100000200000100200,
100000202020100000100000200200100200100000100200,
100000100200100000100200100200200200100000200000,
#GOGOEND
#END

COURSE:Oni
LEVEL:7
SCOREINIT:1700
SCOREDIFF:0
#START
000000000000000000000000000000000000000000000000,
200000000000000000000000000000000000000000000000,
200000000000000000000000000000000000000000000000,
200000000000000000000000000000000000000000000000,
200000000000000000000000100000100000200000100100,
#GOGOSTART
100000000000200000000000100000200200200000100000,
100000200000200000200000100000200200200000100000,
100000200000100000200000100000200200200000200000,
300000000000300000000000300000000000100000200000,
100000100100100000100000200000200200200000000000,
100100100000200000000000200200100000200000000000,
100000100100100000100000200000200200200000000000,
100100100000200000000000200200100000200000000000,
100000200200100000100000100000200200100000000000,
100100100000200000200200200000100000200000000000,
100000200200100000100000100000200200100000100000,
100000200200100000200200100000200200100000200000,
#GOGOEND
100000000000200000100000000000100000200000000000,
100000000100000000200000100000100000200000100000,
100000000000200000100000000000100000200000000000,
100000000100000000200000100000100000200000100000,
100000000000200000100000100000100000200000000000,
100000000100000000200000100000100000200000100000,
100000000000200000100000100000100000200000000000,
100000000100000000200000100000100000200000100000,
200000200000200000100000200000100100200000000000,
200000200000200000100000200000100100200000000000,
200000200000200000100000200000100100200000000000,
200000200000100000200000100000200200100000000000,
200000200000200000100000200000100100200000000000,
200000200000200000100000200000100100200000000000,
200000200000200000100000200000100100200000000000,
200000000000200000200000100000200200100000000000,
200000000000200000200000100100100000200000200000,
100000000000000000100000200000000000100000100000,
200000000000100000200000200000000000100000100000,
200000000000200000100000200000200000200200200000,
100000000000200000000000100100100000200000000000,
200000000000200000100000200200200000200000000000,
100000000000200000000000100000100000200200200000,
100000000000200000200000100000000000200000000000,
100000000000200000000000100100100000200000000000,
200000000000200000100000200200200000200000000000,
100000000000200000000000100000100000200200200000,
100000000000200000200000100000000000200000000000,
100000000000200000000000100100100000200000000000,
200000000000200000100000200200200000200000000000,
100000000000200000000000100000100000200200200000,
100000000000000000000000000000100000200000000000,
200200200000200000000000100000200200200000000000,
100000100100100000200000100000000000200000100000,
200000100000200000200000100000200200200000200000,
100000000000200000100000000000100000200000000000,
200200200000200000000000100000200200200000000000,
100000100100100000200000100000000000200000100000,
200000100000200000200000100000200200200000200000,
100000000000200000100000000000100000200000000000,
200200200000200000000000100000200200200000000000,
100000100100100000200000100000100000200000100000,
200200200000200000000000100000200200200000000000,
100000100100100000200000100000100000200000100000,
200200200000200000000000100000200200200000000000,
100000100100100000200000100000100000200000100000,
200200200000200000000000100000200200200000000000,
100000000000100000000000000000000000000000000000,
#GOGOSTART
100000100100100000100000200000200200200000000000,
100100100000200000000000200200100000200000000000,
100000100100100000100000200000200200200000000000,
100100100000200000000000200200100000200000000000,
100000200200100000100000100000200200100000000000,
100100100000200000200200200000100000200000000000,
100000200200100000100000100000200200100000100000,
100000200200100000200200100000000000100000200000,
100000100100100000100000200000200200100000000000,
100100100000200000000000200200100000200000000000,
100000100100100000100000200000200200200000000000,
100100100000200000000000200200100000200000000000,
100000200200100000100000100000200200100000000000,
100100100000200000200200200000100000200000000000,
100000200200100000100000100000200200100000100000,
100000200200100000200200100000200200100000200000,
#GOGOEND
#END

COURSE:Hard
LEVEL:5
BALLOON:6
SCOREINIT:2740
SCOREDIFF:0
#START
000000000000000000000000000000000000000000000000,
200000000000000000000000000000000000000000000000,
200000000000000000000000000000000000000000000000,
200000000000000000000000000000000000000000000000,
200000000000000000000000000000000000000000000000,
#GOGOSTART
100000000000100000000000200000000000200000200000,
100000200000100000000000200000000000200000200000,
100000200000100000000000200000000000200000200000,
300000000000300000000000300000000000000000000000,
100000000000100000000000200000000000000000100000,
000000100000000000100000200000000000200000000000,
100000000000100000000000200000000000000000100000,
000000100000000000100000200000000000200000200000,
100000200000100000000000200000000000200000200000,
100000200000100000000000200000000000200000200000,
100000200000100000000000200000000000200000200000,
300000000000300000000000300000000000000000000000,
#GOGOEND
100000000000000000100000000000100000200000000000,
100000000000000000100000200000000000000000000000,
100000000000000000100000000000100000200000000000,
100000000000000000100000200000000000000000000000,
100000000000000000100000000000100000200000000000,
100000000000000000100000200000000000000000000000,
100000000000000000100000000000100000200000000000,
100000000000000000100000200000000000000000000000,
200000200000100000000000100000000000100000200000,
200000200000100000000000100000000000100000200000,
200000200000100000000000200000000000100000200000,
200000200000100000000000200000000000100000000000,
200000200000100000000000100000000000100000200000,
200000200000100000000000100000000000100000200000,
200000200000100000000000200000000000100000200000,
100000000000100000200000100000000000000000000000,
000000000000000000000000000000000000000000000000,
100000000000000000100000200000000000100000100000,
100000000000000000100000200000000000100000100000,
700000000000000000800000000000000000000000000000,
100000000000200000000000100000100000200000000000,
100000000000200000100000200000000000000000000000,
100000000000200000000000100000100000200000000000,
200000000000200000100000200000000000000000000000,
100000000000200000000000100000100000200000000000,
100000000000200000100000200000000000000000000000,
100000000000200000000000100000100000200000000000,
200000000000200000000000000000000000000000000000,
100000000000200000000000100000100000200000000000,
100000000000200000100000200000000000100000000000,
100000000000200000000000100000100000200000000000,
100000000000000000000000000000000000000000000000,
100000000000200000200000100000000000200000000000,
100000100000200000000000100000000000200000000000,
100000100000200000200000100000000000200000000000,
100000000000200000100000000000100000200000000000,
100000000000200000200000100000000000200000000000,
100000100000200000000000100000000000200000000000,
100000100000200000200000100000000000200000000000,
100000000000200000100000000000100000200000000000,
100000000000200000200000100000000000200000000000,
100000100000200000000000100000100000200000000000,
100000000000200000200000100000000000200000000000,
100000100000200000100000000000100000200000000000,
100000000000200000200000100000000000200000000000,
100000100000200000000000100000100000200000000000,
100000000000200000200000100000000000200000000000,
100000000000100000000000000000000000000000000000,
#GOGOSTART
100000100000200000000000100000100000200000100000,
000000100000000000100000200000000000200000000000,
100000100000200000000000100000100000200000100000,
000000100000000000100000200000000000200000200000,
100000200000100000000000200000000000200000200000,
100000200000100000000000200000000000200000200000,
100000200000100000200000100000000000200000000000,
300000000000300000000000300000000000000000000000,
100000100000200000000000100000100000200000100000,
000000100000000000100000200000000000200000200000,
100000100000200000000000100000100000200000100000,
000000100000000000100000200000000000200000200000,
100000200000100000000000200000000000200000200000,
100000200000100000000000200000000000200000200000,
100000200000100000200000100000000000200000000000,
300000000000300000000000300000000000000000000000,
#GOGOEND
#END

COURSE:Normal
LEVEL:4
BALLOON:5
SCOREINIT:4950
SCOREDIFF:0
#START
000000000000000000000000000000000000000000000000,
200000000000000000000000000000000000000000000000,
000000000000000000000000000000000000000000000000,
200000000000000000000000000000000000000000000000,
000000000000000000000000000000000000000000000000,
#GOGOSTART
100000000000100000000000200000000000000000000000,
100000000000100000000000200000000000000000000000,
100000100000100000000000200000000000000000000000,
300000000000300000000000300000000000000000000000,
100000000000100000000000200000000000000000000000,
000000000000000000000000200000000000000000000000,
100000000000100000000000200000000000000000000000,
000000000000000000000000200000000000000000000000,
100000000000100000000000200000000000000000000000,
100000000000100000000000200000000000000000000000,
100000100000100000000000200000000000000000000000,
300000000000300000000000300000000000000000000000,
#GOGOEND
100000000000000000000000000000000000200000000000,
100000000000000000000000200000000000000000000000,
100000000000000000000000000000000000200000000000,
100000000000000000000000200000000000000000000000,
100000000000000000000000000000000000200000000000,
100000000000000000000000200000000000000000000000,
100000000000000000000000000000000000200000000000,
100000000000000000000000200000000000000000000000,
200000000000200000000000200000000000000000000000,
200000000000200000000000200000000000000000000000,
200000000000000000000000200000000000000000000000,
200000000000200000000000200000000000000000000000,
200000000000200000000000200000000000000000000000,
200000000000200000000000200000000000000000000000,
200000000000000000000000200000000000000000000000,
200000000000200000000000200000000000000000000000,
000000000000000000000000000000000000000000000000,
100000000000000000100000200000000000000000000000,
100000000000000000100000200000000000000000000000,
700000000000000000800000000000000000000000000000,
100000000000000000000000100000000000000000000000,
100000000000100000000000200000000000000000000000,
100000000000000000000000200000000000000000000000,
100000000000100000000000200000000000000000000000,
100000000000000000000000100000000000000000000000,
100000000000100000000000200000000000000000000000,
100000000000000000000000200000000000000000000000,
200000000000200000000000000000000000000000000000,
100000000000000000000000200000000000200000000000,
100000000000000000000000200000000000000000000000,
100000000000000000000000200000000000200000000000,
100000000000000000000000000000000000000000000000,
100000000000000000000000000000000000200000000000,
100000100000100000000000100000000000000000000000,
100000100000100000000000100000000000000000000000,
100000000000000000000000000000000000000000000000,
100000000000000000000000000000000000200000000000,
100000100000100000000000100000000000000000000000,
100000100000100000000000100000000000000000000000,
100000000000000000000000000000000000000000000000,
100000000000000000000000000000000000200000000000,
100000100000100000000000100000000000100000000000,
100000000000000000000000000000000000200000000000,
100000100000100000000000000000000000000000000000,
100000000000000000000000000000000000200000000000,
100000100000100000000000100000000000100000000000,
100000000000000000000000000000000000200000000000,
100000000000000000000000000000000000000000000000,
#GOGOSTART
100000100000100000000000200000000000000000000000,
000000000000000000000000200000000000200000000000,
100000100000100000000000200000000000000000000000,
000000000000000000000000200000000000200000000000,
100000000000100000000000200000000000000000000000,
100000000000100000000000200000000000000000000000,
100000100000100000000000200000000000000000000000,
300000000000300000000000300000000000000000000000,
100000100000100000000000200000000000000000000000,
000000000000000000000000200000000000200000000000,
100000100000100000000000200000000000000000000000,
000000000000000000000000200000000000200000000000,
100000000000100000000000200000000000000000000000,
100000000000100000000000200000000000000000000000,
100000100000100000000000200000000000000000000000,
300000000000300000000000300000000000000000000000,
#GOGOEND
#END

COURSE:Easy
LEVEL:3
BALLOON:4
SCOREINIT:8200
SCOREDIFF:0
#START
000000000000000000000000000000000000000000000000,
200000000000000000000000000000000000000000000000,
000000000000000000000000000000000000000000000000,
200000000000000000000000000000000000000000000000,
000000000000000000000000000000000000000000000000,
#GOGOSTART
100000000000000000000000000000000000000000000000,
100000000000000000000000000000000000000000000000,
100000000000000000000000100000000000000000000000,
300000000000300000000000300000000000000000000000,
100000000000000000000000000000000000000000000000,
000000000000000000000000200000000000000000000000,
100000000000000000000000000000000000000000000000,
000000000000000000000000200000000000000000000000,
100000000000000000000000000000000000000000000000,
100000000000000000000000000000000000000000000000,
100000000000000000000000100000000000000000000000,
300000000000300000000000300000000000000000000000,
#GOGOEND
100000000000000000000000000000000000000000000000,
100000000000000000000000100000000000000000000000,
100000000000000000000000000000000000000000000000,
100000000000000000000000100000000000000000000000,
100000000000000000000000000000000000000000000000,
100000000000000000000000100000000000000000000000,
100000000000000000000000000000000000000000000000,
100000000000000000000000000000000000000000000000,
200000000000000000000000000000000000000000000000,
200000000000000000000000200000000000000000000000,
200000000000000000000000000000000000000000000000,
200000000000000000000000200000000000000000000000,
200000000000000000000000000000000000000000000000,
200000000000000000000000200000000000000000000000,
200000000000000000000000000000000000000000000000,
200000000000000000000000000000000000000000000000,
000000000000000000000000000000000000000000000000,
100000000000000000000000000000000000000000000000,
100000000000000000000000000000000000000000000000,
700000000000000000000000800000000000000000000000,
100000000000000000000000000000000000000000000000,
100000000000000000000000100000000000000000000000,
100000000000000000000000000000000000000000000000,
100000000000100000000000100000000000000000000000,
100000000000000000000000000000000000000000000000,
100000000000000000000000100000000000000000000000,
100000000000000000000000000000000000000000000000,
200000000000200000000000000000000000000000000000,
100000000000000000000000000000000000000000000000,
100000000000000000000000100000000000000000000000,
100000000000000000000000000000000000000000000000,
100000000000000000000000000000000000000000000000,
100000000000000000000000000000000000000000000000,
200000000000000000000000200000000000000000000000,
100000000000100000000000100000000000000000000000,
100000000000000000000000000000000000000000000000,
100000000000000000000000000000000000000000000000,
200000000000000000000000200000000000000000000000,
100000000000100000000000100000000000000000000000,
100000000000000000000000000000000000000000000000,
100000000000000000000000000000000000000000000000,
200000000000000000000000100000000000100000000000,
100000000000000000000000000000000000000000000000,
200000000000000000000000000000000000000000000000,
100000000000000000000000000000000000000000000000,
200000000000000000000000100000000000100000000000,
100000000000000000000000000000000000000000000000,
200000000000000000000000000000000000000000000000,
#GOGOSTART
100000000000000000000000100000000000000000000000,
000000000000000000000000200000000000000000000000,
100000000000000000000000100000000000000000000000,
000000000000000000000000200000000000000000000000,
100000000000100000000000100000000000000000000000,
100000000000100000000000100000000000000000000000,
100000000000000000000000100000000000000000000000,
300000000000300000000000300000000000000000000000,
100000000000000000000000100000000000000000000000,
000000000000000000000000200000000000000000000000,
100000000000000000000000100000000000000000000000,
000000000000000000000000200000000000000000000000,
100000000000100000000000100000000000000000000000,
100000000000100000000000100000000000000000000000,
100000000000000000000000100000000000000000000000,
300000000000300000000000300000000000000000000000,
#GOGOEND
#END
