//TJADB Project
TITLE:Haikei,
Gakkou ni te...
TITLEJA:拝啓、学校にて…
SUBTITLE:--Go Shiina feat. Ryoko Shiraishi
SUBTITLEJA:風間飛鳥(CV:白石涼子)
BPM:130.01
WAVE:Haikei,
Gakkou ni te....ogg
OFFSET:-3.385
DEMOSTART:72.451 //SONG_ID:cna3 //NOTE:
AC16/RC Chart (No Ura in RC). Wii3 and AC11/14 chart only differ by the minor BPM/HS changes.

COURSE:Edit
LEVEL:8
BALLOON:6
SCOREINIT:1390
SCOREDIFF:0
#START
#SCROLL 1.01
1000001000202011,
#BPMCHANGE 131.88
#SCROLL 1
00101122,
#BPMCHANGE 133.37
#SCROLL 0.98
10000122,
#BPMCHANGE 132.79
#SCROLL 0.99
1000200012112111, //4
#BPMCHANGE 132
#SCROLL 1
2022101120102210,
1022102210221022,
1010221200300030,
0021210211101111,
200111200000200111200000,
200000102020200000000100200000200200100000200000,
1110200220111000,
500000000000000000000000000000000000000008000000, //12
2002202022202000,
2002202022022000,
2002202022202220,
2002202022202000,
1002202010202220,
1002201012201000,
1002202210221020,
1002202022202000, //20
1101202010102020,
1101202012021202,
1022102011021020,
1011202012021202,
1101202010102020,
2201202010102111,
2211211122111222,
500000000000000008000000200200200200100100100100, //28
1022221022101022,
1022221022101020,
1022221022101020,
1022221011021020,
3022221022101020,
1022221022102020,
2000100011112000,
1122200020001010,
1111200010202010,
2211221121211120, //38
#GOGOSTART
3000401100102011,
1122012012004000,
1022201010112021,
1111201202102020,
1022011010212022,
0111201110111010,
1120110210111011,
1220122012203000, //46
3040400210111020,
1111201011201020,
1111201010221020,
1111201210102020,
1111202010212021,
1111201110201020,
1111201210111212,
1011202010112212, //54
100000101010200000100000200100100000200000200200,
1211201022102022,
1211201022102022,
1222122212221010,
2211201202102020,
300300300300000111200000,
1102111211021122,
1102122211112222, //62
#GOGOEND
1002201011012010,
1111211121112020,
#BPMCHANGE 130.4
#SCROLL 1.01
1111201010221122,
#BPMCHANGE 132.83
#SCROLL 0.99
1000100010221122,
#BPMCHANGE 131.56
#SCROLL 1
1122112211112212,
#BPMCHANGE 132.19
#SCROLL 0.99
1122112211222212,
#BPMCHANGE 132
#SCROLL 1
700000000800002222222200,
4600,
000000000000000000000000000000000008000000000000,
0,
0,
0, //74
#END

COURSE:Oni
LEVEL:7
BALLOON:20,30
SCOREINIT:670,2230
SCOREDIFF:175
#START
#SCROLL 1.01
0,
#BPMCHANGE 131.88
#SCROLL 1
0,
#BPMCHANGE 133.37
#SCROLL 0.98
0,
#BPMCHANGE 132.79
#SCROLL 0.99
0000000011101110, //4
#BPMCHANGE 132
#SCROLL 1
1000201110102000,
1000201110102000,
1000201110200010,
0010110111101000,
1313,
1011100010101000,
10200120,
500000000000000000000000000000000000000008000000, //12
2002000000202000,
2002000022202000,
2002000000202000,
2002000022202000,
22,
2,
2,
22, //20
1001101010011010,
1001101011011110,
1001101010011010,
1001101011011110,
1001101010011010,
1001101010011110,
1001101010011010,
1001101011221122, //28
1001201000102000,
1001201001102000,
1001201000102000,
1001201011101110,
1001201000102000,
1001201001102000,
10012000,
10012000,
33002100,
500000000000000000000000000000000008000000000000, //38
#GOGOSTART
1000201000102011,
0010201001102010,
1000201010102011,
0010201001102010,
1000201000102011,
0010201001102010,
10211121,
1110111011101110, //46
30300112,
1000201101201020,
1010201101202010,
1010201102201020,
1000201101201020,
1000201101201020,
1010200010110120,
1000201010110020, //54
1001201012102010,
1001201012112010,
1001201012102010,
1001201012112110,
2211201100101000,
33330000,
1120221011202210,
1120221011202210, //62
#GOGOEND
7,
000000000000000000000000000000080000000000000000,
#BPMCHANGE 130.4
#SCROLL 1.01
1000000010221122,
#BPMCHANGE 132.83
#SCROLL 0.99
1000100010221122,
#BPMCHANGE 131.56
#SCROLL 1
1011101110112210,
#BPMCHANGE 132.19
#SCROLL 0.99
1011101110112210,
#BPMCHANGE 132
#SCROLL 1
600000000000000000000000000000000000000008000000,
3700,
000000000000000000000000000000000000000000080000,
0,
0,
0, //74
#END

COURSE:Hard
LEVEL:4
BALLOON:14,6
SCOREINIT:800,3880
SCOREDIFF:238
#START
#SCROLL 1.01
0,
#BPMCHANGE 131.88
#SCROLL 1
0,
#BPMCHANGE 133.37
#SCROLL 0.98
0,
#BPMCHANGE 132.79
#SCROLL 0.99
0000000011101000, //4
#BPMCHANGE 132
#SCROLL 1
3000200011101000,
1000200011101000,
1000101110100010,
0000000000001110,
1313,
10101110,
1,
3, //12
1001001000101000,
1001001000101000,
1001001000101000,
1001001000101000,
11,
11,
11,
1100, //20
1001100010001000,
1001100010000000,
1001100010001000,
1001100010000000,
1111,
11,
1011,
10110000, //28
1011100010000000,
1011100010000000,
1011100010000000,
1011100010001000,
1011100010001000,
1011100010001000,
5,
000000000000000000000008000000000000100000100000,
10110101,
00110000, //38
#GOGOSTART
30030111,
00200111,
10201120,
10201120,
10210120,
10210120,
10000110,
1110100011101000, //46
10201122,
10201120,
10201122,
10201120,
10210120,
10210120,
10201122,
10201122, //54
10000112,
20010112,
20010115,
000000000000000000000008000000000000100000000000,
10210120,
33330011,
500000000000000000000000000000000000000000000008,
00101110, //62
#GOGOEND
7,
000000000000000000000000000000080000000000000000,
#BPMCHANGE 130.4
#SCROLL 1.01
11,
#BPMCHANGE 132.83
#SCROLL 0.99
11,
#BPMCHANGE 131.56
#SCROLL 1
500000000000000000000000000000000000000008000000,
#BPMCHANGE 132.19
#SCROLL 0.99
700000000000000000000000000000080000000000000000,
#BPMCHANGE 132
#SCROLL 1
600000000000000000000000000000000000000008000000,
0300,
0,
0,
0,
0, //74
#END

COURSE:Normal
LEVEL:3
BALLOON:10,14,6
SCOREINIT:1070,7330
SCOREDIFF:433
#START
#SCROLL 1.01
0,
#BPMCHANGE 131.88
#SCROLL 1
0,
#BPMCHANGE 133.37
#SCROLL 0.98
0,
#BPMCHANGE 132.79
#SCROLL 0.99
0, //4
#BPMCHANGE 132
#SCROLL 1
31,
1111,
10000700,
00000800,
11,
11,
5,
000000000000000000000008000000000000000000000000, //12
10010000,
10010000,
1110,
10110000,
22,
2,
22,
2, //20
30011000,
10011000,
10011000,
1100,
11,
1011,
11,
1100, //28
12,
1120,
12,
1120,
12,
1120,
5,
000000000000000000000008000000000000000000000000,
11,
1110, //38
#GOGOSTART
30030010,
1001,
1011,
1,
1011,
1011,
1011,
1003, //46
30030010,
1001,
1011,
1001,
1011,
1011,
1011,
1011, //54
1002,
2022,
2022,
500000000000000000000008000000000000100000000000,
11,
11110000,
11,
1111, //62
#GOGOEND
7,
000000000000000000000000000000080000000000000000,
#BPMCHANGE 130.4
#SCROLL 1.01
11,
#BPMCHANGE 132.83
#SCROLL 0.99
11,
#BPMCHANGE 131.56
#SCROLL 1
500000000000000000000000000000000000000008000000,
#BPMCHANGE 132.19
#SCROLL 0.99
700000000000000000000000000000080000000000000000,
#BPMCHANGE 132
#SCROLL 1
600000000000000000000000000000000000000008000000,
0300,
0,
0,
0,
0, //74
#END

COURSE:Easy
LEVEL:2
BALLOON:10,14,6
SCOREINIT:900,9720
SCOREDIFF:480
#START
#SCROLL 1.01
0,
#BPMCHANGE 131.88
#SCROLL 1
0,
#BPMCHANGE 133.37
#SCROLL 0.98
0,
#BPMCHANGE 132.79
#SCROLL 0.99
0, //4
#BPMCHANGE 132
#SCROLL 1
3,
1,
10000700,
00000800,
11,
11,
5,
000000000000000000000008000000000000000000000000, //12
1,
1,
11,
11,
22,
2,
22,
2, //20
3,
11,
11,
1100,
11,
11,
11,
1100, //28
12,
12,
12,
1,
12,
12,
5,
000000000000000000000008000000000000000000000000,
11,
1110, //38
#GOGOSTART
3001,
1001,
1011,
1,
1011,
1,
1011,
1, //46
3001,
1001,
1011,
1001,
11,
1001,
11,
1011, //54
1,
1,
1,
3,
11,
1110,
11,
11, //62
#GOGOEND
7,
000000000000000000000000000000080000000000000000,
#BPMCHANGE 130.4
#SCROLL 1.01
11,
#BPMCHANGE 132.83
#SCROLL 0.99
11,
#BPMCHANGE 131.56
#SCROLL 1
500000000000000000000000000000000000000008000000,
#BPMCHANGE 132.19
#SCROLL 0.99
700000000000000000000000000000080000000000000000,
#BPMCHANGE 132
#SCROLL 1
600000000000000000000000000000000000000008000000,
0300,
0,
0,
0,
0, //74
#END
