//TJADB Project
TITLE:Mori no Kuma-san -New Audio-
TITLEJA:もりのくまさん
SUBTITLE:--Baba Yoshihiro
BPM:120
WAVE:Mori no Kuma-san -New Audio-.ogg
OFFSET:-5.053
DEMOSTART:8.282

COURSE:Edit
LEVEL:9
STYLE:Double
SCOREINIT:1020
SCOREDIFF:300
#START P1
1100110011010100,
1001001010221020,
1000000000112020,
1000000000221020,
1000000000112020,
1000000000110011,
1111,
1011111100001000,
1111,
1001001010212020,
#SCROLL 1.5
1000000000121020,
1000000000212020,
1000000000121020,
1000000000001100,
0011010100110101,
0000000010110011,
0011010010110100,
1001001010110011,
1000100011011000,
1000100011011000,
1000100011011000,
1001001000201020,
0001000010102020,
0002000010201020,
0001000010102020,
0002000010110011,
1011010010110100,
1000000010110011,
1011010010110100,
1001001010120000,
#SCROLL 1.75
1000102200210000,
1000202100120000,
1000102200210000,
1000202100001100,
0111,
1011111100001100,
0111,
#SCROLL 2
1001001000112212,
1000000000121122,
1000000000112212,
1000000000121122,
#GOGOSTART
1000000000110011,
1000110011001100,
1000100100110011,
0000110011001100,
1001001000221122,
#SCROLL 3
2022112210221122,
1022122120221122,
#SCROLL 4
1022120210221020,
1121021120210211,
1021021010003000,
#GOGOEND
#END
#START P2
0020002000200020,
0020020000000000,
0022102010000000,
0011202010000000,
0022102010000000,
0011202010002200,
0022020200220202,
0000000020220020,
0022020200220202,
0020020000000000,
#SCROLL 1.5
0021202010000000,
0012102010000000,
0021202010000000,
0012102010220022,
2222,
2022222200002200,
2000200200002002,
0020020000002200,
0022002200200020,
0022002200200020,
0022002200200020,
0020020020010000,
1020102000020000,
1010202000010000,
1020102000020000,
1010202000002200,
0000200200002002,
0022222200002200,
0000200200002002,
0020020000010022,
#SCROLL 1.75
0012000010002021,
0021000010001022,
0012000010002021,
0021000010220022,
2022020200220202,
0000000020220022,
2022020200220202,
0020020020000000,
#SCROLL 2
0011221210000000,
0012112210000000,
0011221210000000,
0012112210002200,
#GOGOSTART
0022002200220022,
0022022020002200,
2022002200220022,
0020020020221122,
#SCROLL 3
2022112210221122,
1022122120221122,
#SCROLL 4
1022120210221020,
1121021120210211,
1021021010003000,
#GOGOEND
#END
STYLE:Single
SCOREINIT:630
SCOREDIFF:165
#START
#SCROLL 0.5
1210212011210120,
#SCROLL 0.6
1021021010221020,
#SCROLL 0.7
1020002010112020,
#SCROLL 0.8
1020002010221020,
#SCROLL 0.9
1020002010112020,
#SCROLL 1
1020002010112020,
#SCROLL 1.1
1011210210221202,
#SCROLL 1.2
1011221210112120,
#SCROLL 1.3
1022120211210120,
#SCROLL 1.4
1021021010212020,
#SCROLL 1.5
1020002010121020,
#SCROLL 1.6
1020002010212020,
#SCROLL 1.7
1020002010121020,
#SCROLL 1.8
1020002010112020,
#SCROLL 1.9
1011210210221202,
#SCROLL 2
1011221210221210,
#SCROLL 2.1
1022120211210120,
#SCROLL 2.2
1021021010112212,
#SCROLL 2.3
1022120211212021,
#SCROLL 2.4
2022120211212012,
#SCROLL 2.5
1022120211210120,
#SCROLL 2.6
1021021020211020,
#SCROLL 2.7
1020102010122020,
#SCROLL 2.8
1020102010211020,
#SCROLL 2.9
1020102010122020,
#SCROLL 3
1020102010112212,
#SCROLL 3.1
1011210210221202,
#SCROLL 3.2
1022121120221221,
#SCROLL 3.3
1011210211210210,
#SCROLL 3.4
1021021010112020,
#SCROLL 3.5
1011202010221020,
#SCROLL 3.6
1022102010112020,
#SCROLL 3.7
1011202010221020,
#SCROLL 3.8
1022102010221121,
#SCROLL 3.9
1022120210112102,
#SCROLL 4
1011221210221210,
#SCROLL 4.1
1022120211210120,
#SCROLL 4.2
1021021010122022,
#SCROLL 4.3
1012202210211011,
#SCROLL 4.4
2021101120122022,
#SCROLL 4.5
1012202210211011,
#SCROLL 4.6
2021101120112212,
#GOGOSTART
#SCROLL 4.7
1011210210221202,
#SCROLL 4.8
1022112120112120,
#SCROLL 4.9
1022120210112102,
#SCROLL 5
1021021010112212,
#SCROLL 5.1
1011210212112102,
#SCROLL 5.2
1011210210112212,
#SCROLL 5.3
1122120211221202,
#SCROLL 8
1021021120210211,
1012012010003000,
#GOGOEND
#END

COURSE:Oni
LEVEL:1
STYLE:Double
BALLOON:7
SCOREINIT:910
SCOREDIFF:310
#START P1
11101010,
12002110,
10000110,
10000110,
10000110,
10000111,
1122,
50008111,
1122,
11011000,
02202000,
02202000,
02202000,
02202111,
1122,
50008111,
1122,
50008111,
21102020,
50008111,
21102020,
11012111,
20000111,
20000111,
20000111,
20000111,
1122,
50008111,
1122,
11022000,
01122000,
01122000,
01122000,
01122111,
1122,
50008111,
1122,
50008121,
20000121,
20000121,
20000121,
20000111,
1122,
50008111,
1122,
50008111,
#GOGOSTART
1122,
50008111,
1122,
70000800,
11012030,
#GOGOEND
#END
#START P2
11101010,
12002000,
01101000,
01101000,
01101000,
01101111,
1122,
50008111,
1122,
11011220,
20000220,
20000220,
20000220,
20000111,
1122,
50008111,
1122,
50008111,
21102020,
50008111,
21102020,
11012000,
01112000,
01112000,
01112000,
01112111,
1122,
50008111,
1122,
11022112,
20000112,
20000112,
20000112,
20000111,
1122,
50008111,
1122,
58,
01212000,
01212000,
01212000,
01212111,
1122,
50008111,
1122,
50008111,
#GOGOSTART
1122,
50008111,
1122,
70000800,
11012030,
#GOGOEND
#END
STYLE:Single
BALLOON:7
SCOREINIT:1160
SCOREDIFF:403
#START
11101010,
12002110,
10000110,
10000110,
10000110,
10000111,
1122,
50008111,
1122,
11011000,
02202000,
02202000,
02202000,
02202111,
1122,
50008111,
1122,
50008111,
21102020,
50008111,
21102020,
11012111,
20000111,
20000111,
20000111,
20000111,
1122,
50008111,
1122,
11022000,
01122000,
01122000,
01122000,
01122111,
1122,
50008111,
1122,
50008121,
20000121,
20000121,
20000121,
20000111,
1122,
50008111,
1122,
50008111,
#GOGOSTART
1122,
50008111,
1122,
70000800,
11012030,
#GOGOEND
#END

COURSE:Hard
LEVEL:1
STYLE:Single
BALLOON:7
SCOREINIT:910
SCOREDIFF:310
#START
11101010,
12002110,
10000110,
10000110,
10000110,
10000111,
1122,
50008111,
1122,
11011000,
02202000,
02202000,
02202000,
02202111,
1122,
50008111,
1122,
50008111,
21102020,
50008111,
21102020,
11012111,
20000111,
20000111,
20000111,
20000111,
1122,
50008111,
1122,
11022000,
01122000,
01122000,
01122000,
01122111,
1122,
50008111,
1122,
50008121,
20000121,
20000121,
20000121,
20000111,
1122,
50008111,
1122,
50008111,
#GOGOSTART
1122,
50008111,
1122,
70000800,
11012030,
#GOGOEND
#END
STYLE:Double
BALLOON:7
#START P1
11101010,
12002110,
10000110,
10000110,
10000110,
10000111,
1122,
50008111,
1122,
11011000,
02202000,
02202000,
02202000,
02202111,
1122,
50008111,
1122,
50008111,
21102020,
50008111,
21102020,
11012111,
20000111,
20000111,
20000111,
20000111,
1122,
50008111,
1122,
11022000,
01122000,
01122000,
01122000,
01122111,
1122,
50008111,
1122,
50008121,
20000121,
20000121,
20000121,
20000111,
1122,
50008111,
1122,
50008111,
#GOGOSTART
1122,
50008111,
1122,
70000800,
11012030,
#GOGOEND
#END
#START P2
11101010,
12002000,
01101000,
01101000,
01101000,
01101111,
1122,
50008111,
1122,
11011220,
20000220,
20000220,
20000220,
20000111,
1122,
50008111,
1122,
50008111,
21102020,
50008111,
21102020,
11012000,
01112000,
01112000,
01112000,
01112111,
1122,
50008111,
1122,
11022112,
20000112,
20000112,
20000112,
20000111,
1122,
50008111,
1122,
58,
01212000,
01212000,
01212000,
01212111,
1122,
50008111,
1122,
50008111,
#GOGOSTART
1122,
50008111,
1122,
70000800,
11012030,
#GOGOEND
#END

COURSE:Normal
LEVEL:1
BALLOON:7,7,7,7,7,7
SCOREINIT:1190
SCOREDIFF:578
#START
11,
1110,
1001,
1001,
1001,
1,
1122,
58,
1122,
58,
02,
0220,
0220,
0220,
1122,
7008,
1122,
7008,
11102000,
58,
11102000,
1130,
1001,
2001,
2001,
2,
1122,
58,
1122,
58,
01,
0210,
0210,
0210,
1122,
7008,
1122,
7008,
10000110,
20000110,
20000110,
2,
1122,
58,
1122,
58,
#GOGOSTART
1122,
7008,
1122,
7008,
11011030,
#GOGOEND
#END

COURSE:Easy
LEVEL:1
#START
11,
11,
1,
1,
1,
1,
1110,
3,
1110,
3,
02,
02,
02,
02,
1110,
3,
1110,
3,
1110,
58,
1110,
13,
1,
1,
1,
1,
1111,
1,
1111,
1,
0110,
0110,
0110,
0110,
1111,
1,
1111,
1001,
1001,
1001,
1001,
1,
1111,
1,
1111,
1,
#GOGOSTART
1111,
58,
1111,
5008,
1013,
#GOGOEND
#END
