//TJADB Project
TITLE:Ponytail to Shushu
TITLEJA:ポニーテールとシュシュ
SUBTITLE:--AKB48
BPM:80
WAVE:Ponytail to Shushu.ogg
OFFSET:-3.344
DEMOSTART:69.328

COURSE:Oni
LEVEL:7
BALLOON:16,12,12,12,12,18,12
SCOREINIT:600
SCOREDIFF:150
#START
2002020220020202,
#BPMCHANGE 80.22
2002020220022020,
#BPMCHANGE 80.14
2002020220020200,
#BPMCHANGE 80.16
7008,
#BPMCHANGE 160
#GOGOSTART
1011201110102011,
1011201110102011,
1011201110102070,
0008,
1011201110102011,
1011201110102000,
3344,
3434,
3011201000112010,
02020444,
3011201000112010,
02020444,//16
#GOGOEND
30201120,
10201120,
10201121,
01201120,
10201120,
10201120,
10201121,
0010101011102220,
1010201110102010,
1010201110201020,
1010201110102010,
0010201110202000,
1010201110102010,
1010201110201020,
1010201110102010,
0010201110202000,
3000002020222010,
12022020,
3000002020222010,
12022020,
3000002020222010,
12022020,
1212,
1020102011102220,//40
#GOGOSTART
1011201110112011,
1011201110222011,
1011201110112070,
0008,
1011201110112011,
1011201110222011,
1011201120112070,
0008,
1011201110112011,
1011201110222011,
1011201110112070,
0008,
1011201110112011,
1011201110222011,
1011201120112070,
,
08,
1011201110102011,
1011201110102011,
1011201110102070,
0008,
1011201110102011,
1011201110102000,
3333,
4400,//65
#GOGOEND
#END

COURSE:Hard
LEVEL:6
STYLE:Single
BALLOON:11,11
SCOREINIT:730
SCOREDIFF:218
#START
2022,
#BPMCHANGE 80.22
2022,
#BPMCHANGE 80.14
2022,
#BPMCHANGE 80.16
5000000000000000000000000000000000000000000000080000000000000000,//4
#BPMCHANGE 160
#GOGOSTART
10201120,
10201120,
10203306,
0000000000000000000000000000000000000000000000080000000000000000,
10201120,
10210120,
3333,
3434,
30022002,
02020444,
30022002,
02020444,//16
#GOGOEND
30201120,
10201120,
10201121,
,
10201120,
10201120,
10201121,
0011,
1010200011102000,
1010200011102000,
11201221,
0011,
1010200011102000,
1010200011102000,
10211021,
01201020,
40022020,
2011,
40022020,
2011,
40022020,
2,
34,
3344,//40
#GOGOSTART
1011101010002000,
1011101010202000,
1011101010002070,
0008,
1011101010002000,
1011101010202000,
1011101010002050,
0000000000000000000000000000000000000000000000080000000000000000,
1011101110001000,
1011101110202000,
1011101110001070,
0008,
1011101110001000,
1011101110202000,
1011101110001050,
,
0000000000000000000000000000000800000000000000000000000000000000,
10201120,
10201120,
10203306,
0000000000000000000000000000000000000000000000080000000000000000,
10201120,
10210120,
3333,
4400,//65
#GOGOEND
,
,
,
,
,
#END
STYLE:Double
BALLOON:11,11
SCOREINIT:850
SCOREDIFF:263
#START P1
2022,
#BPMCHANGE 80.22
2022,
#BPMCHANGE 80.14
2022,
#BPMCHANGE 80.16
5000000000000000000000000000000000000000000000080000000000000000,//4
#BPMCHANGE 160
#GOGOSTART
10201120,
10201120,
10203306,
0000000000000000000000000000000000000000000000080000000000000000,
10201120,
10210120,
3333,
3434,
30022002,
02020444,
30022002,
02020444,//16
#GOGOEND
30201120,
10201120,
10201121,
,
10201120,
10201120,
10201121,
0011,
1010200011102000,
1010200011102000,
11201221,
0011,
1010200011102000,
1010200011102000,
10211021,
01201020,
40022020,
2011,
40022020,
2011,
40022020,
2,
34,
3344,//40
#GOGOSTART
1011101010002050,
0000000000000000000000000000000800000000000000000000000000000000,
1011101010002070,
0008,
1011101010002050,
0000000000000000000000000000000800000000000000000000000000000000,
1011101110002050,
0000000000000000000000000000000000000000000000080000000000000000,
,
1011101010002050,
0000000000000000000000000000000800000000000000002000000070000000,
0008,
,
1011101010002000,
1011101110002050,
,
0000000000000000000000000000000800000000000000000000000000000000,
10201120,
10201120,
10203306,
0000000000000000000000000000000000000000000000080000000000000000,
10201120,
10210120,
3333,
4400,//65
#GOGOEND
,
,
,
,
,
#END
BALLOON:11,11
SCOREINIT:850
SCOREDIFF:263
#START P2
2022,
#BPMCHANGE 80.22
2022,
#BPMCHANGE 80.14
2022,
#BPMCHANGE 80.16
5000000000000000000000000000000000000000000000080000000000000000,//4
#BPMCHANGE 160
#GOGOSTART
10201120,
10201120,
10203306,
0000000000000000000000000000000000000000000000080000000000000000,
10201120,
10210120,
3333,
3434,
30022002,
02020444,
30022002,
02020444,//16
#GOGOEND
30201120,
10201120,
10201121,
,
10201120,
10201120,
10201121,
0011,
1010200011102000,
1010200011102000,
11201221,
0011,
1010200011102000,
1010200011102000,
10211021,
01201020,
40022020,
2011,
40022020,
2011,
40022020,
2,
34,
3344,//40
#GOGOSTART
,
1011101010002050,
0000000000000000000000000000000800000000000000002000000070000000,
0008,
,
1011101010002000,
1011101110002050,
0000000000000000000000000000000000000000000000080000000000000000,
1011101010002050,
0000000000000000000000000000000800000000000000000000000000000000,
1011101010002070,
0008,
1011101010002050,
0000000000000000000000000000000800000000000000000000000000000000,
1011101110002050,
,
0000000000000000000000000000000800000000000000000000000000000000,
10201120,
10201120,
10203306,
0000000000000000000000000000000000000000000000080000000000000000,
10201120,
10210120,
3333,
4400,//65
#GOGOEND
,
,
,
,
,
#END

COURSE:Normal
LEVEL:5
STYLE:Single
BALLOON:16,16,5,14
SCOREINIT:940
SCOREDIFF:340
#START
22,
#BPMCHANGE 80.22
2220,
#BPMCHANGE 80.14
22,
#BPMCHANGE 80.16
5000000000000000000000000000000000000000000000080000000000000000,//4
#BPMCHANGE 160
#SCROLL 0.876
#GOGOSTART
1110,
1110,
10101005,
0000000000000000000000000000000000000000000000080000000000000000,
34,
34,
3333,
4444,
7,
0008,
7,
0008,//16
#GOGOEND
12,
1120,
11,
1,
12,
1120,
11,
1,
1202,
1202,
11,
1,
1102,
1102,
12,
1120,
4022,
21,
4022,
2,
3011,
12,
33,
70000800,//40
#GOGOSTART
10111010,
10111010,
10111010,
5000000000000000000000000000000000000000000000080000000000000000,
10111010,
10111010,
10111030,
6000000000000000000000000000000000000000000000080000000000000000,
10111020,
10111020,
10111020,
5000000000000000000000000000000000000000000000080000000000000000,
10111020,
10111020,
10111020,
7,
0008,
1110,
1110,
10101005,
0000000000000000000000000000000000000000000000080000000000000000,
34,
34,
3333,
4400,//65
#GOGOEND
,
,
,
,
,
#END
STYLE:Double
BALLOON:16,16,5,14
SCOREINIT:1100
SCOREDIFF:438
#START P1
22,
#BPMCHANGE 80.22
2220,
#BPMCHANGE 80.14
22,
#BPMCHANGE 80.16
5000000000000000000000000000000000000000000000080000000000000000,//4
#BPMCHANGE 160
#SCROLL 0.876
#GOGOSTART
1110,
1110,
10101005,
0000000000000000000000000000000000000000000000080000000000000000,
34,
34,
3333,
4444,
7,
0008,
7,
0008,//16
#GOGOEND
12,
1120,
11,
1,
12,
1120,
11,
1,
1202,
1202,
11,
1,
1102,
1102,
12,
1120,
4022,
21,
4022,
2,
3011,
12,
33,
70000800,//40
#GOGOSTART
10111010,
5000000000000000000000000000000000000000000000080000000000000000,
10111010,
6000000000000000000000000000000000000000000000080000000000000000,
10111010,
5000000000000000000000000000000000000000000000080000000000000000,
10111030,
6000000000000000000000000000000000000000000000080000000000000000,
,
10111010,
5000000000000000000000000000000000000000000000080000000000000000,
6000000000000000000000000000000000000000000000080000000000000000,
,
10111010,
10111010,
7,
0008,
1110,
1110,
10101005,
0000000000000000000000000000000000000000000000080000000000000000,
34,
34,
3333,
4400,//65
#GOGOEND
,
,
,
,
,
#END
BALLOON:16,16,5,14
SCOREINIT:1100
SCOREDIFF:438
#START P2
22,
#BPMCHANGE 80.22
2220,
#BPMCHANGE 80.14
22,
#BPMCHANGE 80.16
5000000000000000000000000000000000000000000000080000000000000000,//4
#BPMCHANGE 160
#SCROLL 0.876
#GOGOSTART
1110,
1110,
10101005,
0000000000000000000000000000000000000000000000080000000000000000,
34,
34,
3333,
4444,
7,
0008,
7,
0008,//16
#GOGOEND
12,
1120,
11,
1,
12,
1120,
11,
1,
1202,
1202,
11,
1,
1102,
1102,
12,
1120,
4022,
21,
4022,
2,
3011,
12,
33,
70000800,//40
#GOGOSTART
,
10111010,
5000000000000000000000000000000000000000000000080000000000000000,
6000000000000000000000000000000000000000000000080000000000000000,
,
10111010,
10111030,
6000000000000000000000000000000000000000000000080000000000000000,
10111010,
5000000000000000000000000000000000000000000000080000000000000000,
10111010,
6000000000000000000000000000000000000000000000080000000000000000,
10111010,
5000000000000000000000000000000000000000000000080000000000000000,
10111010,
7,
0008,
1110,
1110,
10101005,
0000000000000000000000000000000000000000000000080000000000000000,
34,
34,
3333,
4400,//65
#GOGOEND
,
,
,
,
,
#END

COURSE:Easy
LEVEL:3
BALLOON:15,3,3,13
SCOREINIT:770
SCOREDIFF:315
#START
11,
#BPMCHANGE 80.22
1110,
#BPMCHANGE 80.14
11,
#BPMCHANGE 80.16
5000000000000000000000000000000000000000000000080000000000000000,//4
#BPMCHANGE 160
#SCROLL 0.876
#GOGOSTART
1011,
1011,
1011,
5000000000000000000000000000000000000008000000000000000000000000,
34,
34,
9,
009,
8,
,
,
,//16
#GOGOEND
11,
1110,
11,
1,
11,
1110,
11,
1,
12,
1110,
12,
1,
12,
1110,
12,
1,
3011,
1,
4022,
2,
11,
1,
11,
70000800,//40
#GOGOSTART
1110,
11,
1110,
1,
1110,
11,
1110,
70000800,
1110,
11,
1110,
1,
1110,
11,
1110,
7,
00000800,
1011,
1011,
1011,
5000000000000000000000000000000000000000000000080000000000000000,
34,
34,
3330,
4400,//65
#GOGOEND
,
,
,
,
,
#END
