//TJADB Project
TITLE:Symphony No. 5 “Fate”
TITLEJA:交響曲第五番「運命」
SUBTITLE:--Ludwig van Beethoven
BPM:189.82
WAVE:Symphony No. 5 “Fate”.ogg
OFFSET:-2.406
DEMOSTART:0.028

COURSE:Oni
LEVEL:6
STYLE:Double
BALLOON:20,20
#START P1
#BPMCHANGE 190
#MEASURE 6/4
011110000000,
#MEASURE 4/4
,
12221222,
1,
,
00000112,
20000112,
2,
33,
3,
00000111,
7,
00000800,
02222111,
12221000,
,
01111112,
2,
01111000,
11221122,
33,
11221111,
3,
02222111,
1,
,
,
500000000000000000000000000000000008000000000000,
3,
3,
11,
1,
1121,
1100,
00000111,
2012,
1011,
1100,
00000111,
2012,
1112,
01212000,
1112,
01212000,
1133,
500000000000000000000008000000000000000000000000,
12211221,
12211221,
12211212,
12121000,
1212,
1212,
1212,
3,
02222111,
1,
,
00000111,
1,
,
00000113,
3,
,
0202,
0220,
00001221,
1,
11100000,
11111000,
30001221,
1001,
31,
1110,
01111222,
,
21111222,
,
21111222,
,
00000222,
11111111,
10000222,
10101111,
30401120,
10101111,
30401120,
1,
3,
12220000,
12221111,
500000000000000000000000000000000000000000000008,
00000111,
7,
00000800,
,
0033,
0011,
11,
2211,
,
1122,
30000111,
1,
00000111,
,
1111,
34,
3,
#END
#START P2
#BPMCHANGE 190
#MEASURE 6/4
011110000000,
#MEASURE 4/4
,
12221222,
1,
02211000,
02211000,
33,
3,
00000111,
7,
00000800,
,
01111000,
02222111,
12221000,
01111112,
20000111,
33,
11221122,
33,
3,
,
,
22222211,
1,
500000000000000000000000000000000008000000000000,
3,
3,
11,
1,
00000111,
2012,
1121,
1100,
00000111,
2012,
1011,
1112,
01212000,
1112,
01212000,
1112,
1133,
500000000000000000000008000000000000000000000000,
34,
34,
34,
1212,
12211221,
12211221,
12211220,
3,
,
,
02222111,
1,
00000111,
1,
,
00000113,
3,
0202,
00001221,
1,
00001221,
00001110,
00001221,
1001,
30001221,
11,
1110,
,
21111222,
,
21111222,
,
11111111,
1,
,
00000222,
30401120,
10101111,
30401120,
10101111,
1,
3,
00001222,
00001111,
500000000000000000000000000000000000000000000008,
00000111,
7,
00000800,
,
0011,
0033,
11,
,
1122,
1,
3,
00000111,
1,
1111,
,
34,
3,
#END
STYLE:Single
BALLOON:20,20
SCOREINIT:570
SCOREDIFF:110
#START
#MEASURE 6/4
000000100000100000100000100000000000000000000000000000000000000000000000,
#MEASURE 4/4
000000000000000000000000000000000000000000000000,
#BPMCHANGE 188.57
100000200000200000200000100000200000200000200000,
100000000000000000000000000000000000000000000000,
#BPMCHANGE 192.35
100000200000200000200000100000200000200000200000,
#BPMCHANGE 190
100000000000000000000000000000000000000000000000,
#BPMCHANGE 191.98
000000100000100000100000100000000000000000000000,
000000100000100000100000100000000000000000000000,
#BPMCHANGE 189
300000000000000000000000300000000000000000000000,
#BPMCHANGE 191
300000000000000000000000000000000000000000000000,
#BPMCHANGE 185.79
000000000000000000000000000000100000100000100000,
#BPMCHANGE 192.3
700000000000000000000000000000000000000000000000,
#BPMCHANGE 187.93
000000000000000000000000000800000000000000000000,
#BPMCHANGE 188.78
000000200000200000200000200000100000100000100000,
100000200000200000200000100000000000000000000000,
#BPMCHANGE 191.41
000000200000200000200000200000100000100000100000,
100000200000200000200000100000000000000000000000,
#BPMCHANGE 190.52
000000100000100000100000100000000000000000000000,
#BPMCHANGE 190.12
000000100000100000100000100000000000000000000000,
#BPMCHANGE 192.26
100000100000200000200000100000100000200000200000,
#BPMCHANGE 189.87
100000100000200000200000100000100000200000200000,
#BPMCHANGE 190.45
100000100000200000200000100000100000100000100000,
100000000000000000000000000000000000000000000000,
#BPMCHANGE 189.08
000000200000200000200000200000100000100000100000,
100000000000000000000000000000000000000000000000,
#BPMCHANGE 191.63
200000200000200000200000200000200000100000100000,
#BPMCHANGE 188.78
100000000000000000000000000000000000000000000000,
#BPMCHANGE 190.63
500000000000000000000000000000000008000000000000,
300000000000000000000000000000000000000000000000,
#BPMCHANGE 186.44
300000000000000000000000000000000000000000000000,
#BPMCHANGE 187.71
100000000000000000000000100000000000000000000000,
#BPMCHANGE 186.86
100000000000000000000000000000000000000000000000,
#BPMCHANGE 192.74
100000000000100000000000200000000000100000000000,
#BPMCHANGE 189.87
100000000000100000000000000000000000000000000000,
#BPMCHANGE 190.3
100000000000100000000000200000000000100000000000,
#BPMCHANGE 188.14
100000000000100000000000000000000000000000000000,
#BPMCHANGE 193.87
100000000000000000000000100000000000100000000000,
#BPMCHANGE 188.14
100000000000100000000000000000000000000000000000,
#BPMCHANGE 189
100000000000000000000000100000000000100000000000,
#BPMCHANGE 191.96
100000000000100000000000000000000000000000000000,
100000000000100000000000100000000000200000000000,
#BPMCHANGE 189.87
100000000000100000000000100000000000200000000000,
#BPMCHANGE 190
100000000000100000000000100000000000200000000000,
100000000000100000000000100000000000200000000000,
#BPMCHANGE 192.92
100000000000100000000000300000000000300000000000,
#BPMCHANGE 190.09
500000000000000000000008000000000000000000000000,
#GOGOSTART
#BPMCHANGE 189.51
100000200000200000100000100000200000200000100000,
100000200000200000100000100000200000200000100000,
#BPMCHANGE 190
100000200000200000100000100000200000100000200000,
100000200000100000200000100000000000000000000000,
#BPMCHANGE 188.8
100000000000200000000000100000000000200000000000,
#BPMCHANGE 190.6
100000000000200000000000100000000000200000000000,
100000000000200000000000100000000000200000000000,
#BPMCHANGE 190.81
300000000000000000000000000000000000000000000000,
#BPMCHANGE 185.81
#SCROLL 1.04
000000200000200000200000200000100000100000100000,
#BPMCHANGE 193.54
#SCROLL 1
100000000000000000000000000000000000000000000000,
#BPMCHANGE 188.89
000000200000200000200000200000100000100000100000,
#BPMCHANGE 191.13
100000000000000000000000000000100000100000100000,
#BPMCHANGE 189.92
100000000000000000000000000000100000100000100000,
#BPMCHANGE 191
100000000000000000000000000000000000000000000000,
#BPMCHANGE 189.62
000000000000000000000000000000100000100000100000,
#BPMCHANGE 193.42
100000000000000000000000000000100000100000100000,
#GOGOEND
#BPMCHANGE 183.14
#SCROLL 1.05
100000000000000000000000000000000000000000000000,
#BPMCHANGE 191.04
#SCROLL 1
000000000000200000000000000000000000200000000000,
#BPMCHANGE 189.14
000000000000200000000000200000000000000000000000,
#BPMCHANGE 190.09
100000000000000000000000100000200000200000100000,
100000000000000000000000100000200000200000100000,
#BPMCHANGE 192.74
100000100000100000000000100000100000100000000000,
#BPMCHANGE 189.43
100000100000100000100000100000000000000000000000,
100000000000000000000000000000000000100000000000,
#BPMCHANGE 190.08
100000000000000000000000000000000000100000000000,
100000000000000000000000100000000000000000000000,
#BPMCHANGE 191
100000000000100000000000100000000000000000000000,
000000100000100000100000100000200000200000200000,
#BPMCHANGE 190
200000100000100000100000100000200000200000200000,
#BPMCHANGE 189
200000100000100000100000100000200000200000200000,
#BPMCHANGE 190
200000100000100000100000100000200000200000200000,
#BPMCHANGE 190.87
200000100000100000100000100000200000200000200000,
#BPMCHANGE 189.43
100000100000100000100000100000100000100000100000,
100000000000000000000000000000200000200000200000,
#BPMCHANGE 190.11
100000100000100000100000100000100000100000100000,
100000000000000000000000000000200000200000200000,
#GOGOSTART
#BPMCHANGE 190
100000000000100000000000100000100000100000100000,
100000000000100000000000100000100000100000100000,
100000000000100000000000100000100000100000100000,
100000000000100000000000100000100000100000100000,
100000000000000000000000000000000000000000000000,
#BPMCHANGE 191
300000000000000000000000000000000000000000000000,
#BPMCHANGE 190
100000200000200000200000100000200000200000200000,
#BPMCHANGE 191
100000200000200000200000100000100000100000100000,
#BPMCHANGE 189.63
500000000000000000000000000000000000000000000008,
000000000000000000000000000000100000100000100000,
#BPMCHANGE 189.22
700000000000000000000000000000000000000000000000,
000000000000000000000000000800000000000000000000,
000000000000000000000000000000000000000000000000,
#BPMCHANGE 192.74
000000000000000000000000100000000000100000000000,
#BPMCHANGE 189.4
000000000000000000000000100000000000100000000000,
#BPMCHANGE 189
100000000000000000000000100000000000000000000000,
#BPMCHANGE 190
200000000000200000000000100000000000100000000000,
100000000000100000000000200000000000200000000000,
100000000000100000000000200000000000200000000000,
#BPMCHANGE 191
300000000000000000000000000000100000100000100000,
#BPMCHANGE 191.23
100000000000000000000000000000100000100000100000,
#BPMCHANGE 190.52
100000000000000000000000000000100000100000100000,
#BPMCHANGE 188.27
100000000000100000000000100000000000100000000000,
#BPMCHANGE 190.68
100000000000100000000000100000000000100000000000,
300000000000000000000000400000000000000000000000,
#BPMCHANGE 190
300000000000000000000000000000000000000000000000,
#GOGOEND
#END

COURSE:Hard
LEVEL:5
STYLE:Double
BALLOON:20,20
#START P1
#BPMCHANGE 190
#MEASURE 6/4
011110000000,
#MEASURE 4/4
,
12221222,
1,
,
00000112,
20000112,
2,
33,
3,
00000111,
7,
00000800,
02222111,
12221000,
,
01111112,
2,
01111000,
11221122,
33,
11221111,
3,
02222111,
1,
,
,
500000000000000000000000000000000008000000000000,
3,
3,
11,
1,
1121,
1100,
00000111,
2012,
1011,
1100,
00000111,
2012,
1112,
01212000,
1112,
01212000,
1133,
500000000000000000000008000000000000000000000000,
12211221,
12211221,
12211212,
12121000,
1212,
1212,
1212,
3,
02222111,
1,
,
00000111,
1,
,
00000113,
3,
,
0202,
0220,
00001221,
1,
11100000,
11111000,
30001221,
1001,
31,
1110,
01111222,
,
21111222,
,
21111222,
,
00000222,
11111111,
10000222,
10101111,
30401120,
10101111,
30401120,
1,
3,
12220000,
12221111,
500000000000000000000000000000000000000000000008,
00000111,
7,
00000800,
,
0033,
0011,
11,
2211,
,
1122,
30000111,
1,
00000111,
,
1111,
34,
3,
#END
#START P2
#BPMCHANGE 190
#MEASURE 6/4
011110000000,
#MEASURE 4/4
,
,
,
12221222,
1,
02211000,
02211000,
33,
3,
00000111,
7,
00000800,
,
01111000,
02222111,
12221000,
01111112,
20000111,
33,
11221122,
33,
3,
,
,
22222211,
1,
500000000000000000000000000000000008000000000000,
3,
3,
11,
1,
00000111,
2012,
1121,
1100,
00000111,
2012,
1011,
1112,
01212000,
1112,
01212000,
1112,
1133,
500000000000000000000008000000000000000000000000,
34,
34,
34,
1212,
12211221,
12211221,
12211220,
3,
,
,
02222111,
1,
00000111,
1,
,
00000113,
3,
0202,
00001221,
1,
00001221,
00001110,
00001221,
1001,
30001221,
11,
1110,
,
21111222,
,
21111222,
,
11111111,
1,
,
00000222,
30401120,
10101111,
30401120,
10101111,
1,
3,
00001222,
00001111,
500000000000000000000000000000000000000000000008,
00000111,
7,
00000800,
,
0011,
0033,
11,
,
1122,
1,
3,
00000111,
1,
1111,
,
34,
3,
#END
STYLE:Single
SCOREINIT:740
SCOREDIFF:190
#START
#MEASURE 6/4
#BPMCHANGE 190
011110000000,
#MEASURE 4/4
1212,
1,
1212,
1,
01111000,
01111000,
33,
3,
00000111,
#SECTION
#BRANCHSTART p,75,90
#N
500000000000000000000000000000000000000000000008,
,
1210,
11,
1210,
11,
0110,
0110,
11,
11,
11,
#E
500000000000000000000000000000000000000000000008,
,
1210,
1110,
1210,
1110,
0110,
0110,
11,
11,
11,
#M
500000000000000000000000000000000000000000000008,
,
1212,
1110,
1212,
1110,
0110,
0110,
1011,
1011,
1011,
#SECTION
#BRANCHSTART p,75,90
#N
3,
01,
3,
01,
3,
500000000000000000000000000000000008000000000000,
3,
3,
12,
1,
#E
3,
01,
3,
01,
3,
500000000000000000000000000000000008000000000000,
3,
3,
12,
1,
#M
3,
0012,
3,
0012,
3,
500000000000000000000000000000000008000000000000,
3,
3,
12,
1,
#SECTION
#BRANCHSTART p,75,90
#N
1210,
1,
1210,
1,
1210,
1,
1210,
1,
11,
12,
11,
12,
11,
500000000000000000000008000000000000000000000000,
#E
1210,
1100,
1210,
1100,
1210,
1100,
1210,
1100,
1110,
12,
1110,
12,
1130,
500000000000000000000008000000000000000000000000,
#M
1212,
1100,
1212,
1100,
1212,
1100,
1212,
1100,
1111,
12,
1111,
12,
1133,
500000000000000000000008000000000000000000000000,
#GOGOSTART
#SECTION
#BRANCHSTART p,75,90
#N
1110,
1110,
1110,
1111,
11,
1111,
11,
3,
0001,
1,
0001,
1001,
1001,
1,
#E
1210,
1210,
1210,
1111,
1111,
1111,
1111,
3,
0000111,
1,
00000111,
10000111,
10000111,
1,
#M
1210,
1210,
1210,
12101210,
12101210,
12101210,
12101210,
3,
00000111,
1,
00000111,
10000111,
10000111,
1,
#SECTION
#BRANCHSTART p,75,90
#N
0001,
3001,
#GOGOEND
3,
0202,
0220,
11,
11,
1210,
11,
1001,
1001,
11,
1210,
#E
00000111,
30000111,
#GOGOEND
3,
0202,
0220,
11,
11,
1210,
1210,
1001,
1001,
11,
1210,
#M
00000111,
30000111,
#GOGOEND
3,
0202,
0220,
1012,
1012,
1212,
1210,
1001,
1001,
11,
1210,
#SECTION
#BRANCHSTART p,75,90
#N
1110,
1110,
1110,
1110,
1110,
11,
1,
1111,
1,
#E
1120,
1120,
1120,
1120,
1120,
1111,
1,
1111,
1,
#M
1120,
1120,
1120,
1120,
1120,
1111,
1,
11111111,
1,
#SECTION
#BRANCHSTART p,75,90
#N
1011,
1011,
11,
11,
1,
3,
11,
1011,
500000000000000000000000000000000000000000000008,
0001,
500000000000000000000000000000000000000000000008,
,
#E
1011,
1011,
1011,
1011,
1,
3,
11,
10001111,
500000000000000000000000000000000000000000000008,
00000111,
500000000000000000000000000000000000000000000008,
,
#M
1011,
1011,
1011,
1011,
1,
3,
11,
10101111,
500000000000000000000000000000000000000000000008,
00000111,
500000000000000000000000000000000000000000000008,
,
#SECTION
#BRANCHSTART p,75,90
#N
,
0011,
01,
12,
12,
12,
12,
31,
3001,
3,
11,
11,
33,
3,
#E
,
0011,
0011,
12,
12,
12,
12,
12,
31,
30000111,
3,
11,
11,
33,
3,
#M
,
0011,
0011,
12,
12,
12,
12,
31,
30000111,
3,
1111,
1111,
33,
3,
#BRANCHEND
#GOGOEND
#END

COURSE:Normal
LEVEL:5
STYLE:Double
#START P1
#MEASURE 2/4
#BPMCHANGE 190
0111,
#MEASURE 4/4
1,
,
1212,
1,
,
00000111,
10000111,
1,
3,
3,
00000111,
500000000000000000000000000000000000000000000008,
,
1212,
1110,
01110000,
01110000,
0110,
,
1011,
,
1011,
3,
0012,
3,
,
1,
500000000000000000000000000000000008000000000000,
3,
3,
12,
1,
1212,
1100,
00000111,
1,
1212,
1100,
00000111,
1,
1111,
12,
01111000,
01111000,
0033,
500000000000000000000008000000000000000000000000,
1210,
33,
1210,
12101210,
,
12101210,
,
3,
00000111,
1,
20111000,
00000111,
1,
,
00000111,
1,
,
0202,
0220,
1012,
10110000,
1200,
1210,
1001,
10000111,
11,
1210,
1120,
00110000,
1120,
00110000,
1120,
,
,
11111111,
1,
1011,
,
1011,
,
1,
3,
11001000,
10101111,
500000000000000000000000000000000000000000000008,
,
,
,
,
0011,
,
12,
12,
,
12,
31,
00000111,
3,
1122,
33,
33,
3,
#END
#START P2
#MEASURE 2/4
#BPMCHANGE 190
0111,
#MEASURE 4/4
1,
,
,
,
1212,
1,
11111000,
11111000,
03,
3,
00000111,
500000000000000000000000000000000000000000000008,
,
01110000,
01110000,
1212,
1110,
,
0110,
,
1011,
,
3,
,
1,
0012,
3,
500000000000000000000000000000000008000000000000,
3,
3,
12,
1,
00000111,
1,
1212,
1100,
00000111,
1,
1212,
1100,
01111000,
01111000,
1111,
12,
0033,
500000000000000000000008000000000000000000000000,
33,
1210,
33,
,
12101210,
,
12101210,
3,
20111000,
,
00000111,
1,
00000111,
1,
,
00000111,
1,
0202,
0220,
10110000,
1012,
0012,
1210,
00000111,
1001,
11,
1210,
00110000,
1120,
00110000,
1120,
00110000,
11111111,
1,
,
,
,
1011,
,
1011,
,
3,
10001100,
,
,
00000111,
500000000000000000000000000000000000000000000008,
,
,
,
0011,
12,
,
12,
,
30000111,
3,
,
33,
1122,
33,
3,
#END
STYLE:Single
SCOREINIT:990
SCOREDIFF:270
#START
#MEASURE 6/4
000000100000000000000000100000000000000000000000000000000000000000000000,
#MEASURE 4/4
000000000000000000000000000000000000000000000000,
100000000000000000000000100000000000000000000000,
100000000000000000000000000000000000000000000000,
100000000000000000000000100000000000000000000000,
100000000000000000000000000000000000000000000000,
100000000000000000000000200000000000000000000000,
100000000000000000000000000000000000000000000000,
300000000000000000000000300000000000000000000000,
300000000000000000000000000000000000000000000000,
000000000000000000000000100000000000000000000000,
500000000000000000000000000000000000000000008000,
000000000000000000000000000000000000000000000000,
100000000000000000000000200000000000000000000000,
100000000000000000000000000000000000000000000000,
100000000000000000000000200000000000000000000000,
100000000000000000000000000000000000000000000000,
100000000000000000000000100000000000000000000000,
100000000000000000000000000000000000000000000000,
100000000000000000000000100000000000000000000000,
100000000000000000000000100000000000000000000000,
100000000000000000000000100000000000000000000000,
100000000000000000000000000000000000000000000000,
000000000000000000000000000000000000000000000000,
300000000000000000000000000000000000000000000000,
000000000000000000000000000000000000000000000000,
300000000000000000000000000000000000000000000000,
500000000000000000000000000000008000000000000000,
300000000000000000000000000000000000000000000000,
300000000000000000000000000000000000000000000000,
100000000000000000000000200000000000000000000000,
100000000000000000000000000000000000000000000000,
100000000000000000000000200000000000000000000000,
100000000000000000000000000000000000000000000000,
100000000000000000000000200000000000000000000000,
100000000000000000000000000000000000000000000000,
100000000000000000000000200000000000000000000000,
100000000000000000000000000000000000000000000000,
100000000000000000000000200000000000000000000000,
100000000000000000000000000000000000000000000000,
100000000000000000000000100000000000000000000000,
100000000000000000000000100000000000000000000000,
100000000000000000000000100000000000000000000000,
100000000000000000000000100000000000000000000000,
100000000000000000000000100000000000000000000000,
500000000000000000008000000000000000000000000000,
#GOGOSTART
100000000000000000000000200000000000000000000000,
100000000000000000000000200000000000000000000000,
100000000000000000000000200000000000000000000000,
100000000000000000000000200000000000000000000000,
100000000000000000000000000000000000000000000000,
100000000000000000000000100000000000000000000000,
100000000000000000000000100000000000000000000000,
100000000000000000000000000000000000000000000000,
000000000000000000000000000000100000000000000000,
100000000000000000000000000000000000000000000000,
000000000000000000000000000000100000000000000000,
100000000000000000000000000000100000000000000000,
100000000000000000000000000000300000000000000000,
300000000000000000000000000000000000000000000000,
000000000000000000000000000000300000000000000000,
300000000000000000000000000000300000000000000000,
#GOGOEND
300000000000000000000000000000000000000000000000,
100000000000000000000000200000000000000000000000,
100000000000000000000000000000000000000000000000,
100000000000000000000000200000000000000000000000,
100000000000000000000000200000000000000000000000,
100000000000000000000000200000000000000000000000,
100000000000000000000000100000000000000000000000,
100000000000000000000000100000000000000000000000,
100000000000000000000000100000000000000000000000,
100000000000000000000000100000000000000000000000,
100000000000000000000000000000000000000000000000,
100000000000100000000000100000000000000000000000,
100000000000100000000000100000000000000000000000,
100000000000100000000000100000000000000000000000,
100000000000100000000000100000000000000000000000,
100000000000100000000000100000000000000000000000,
100000000000100000000000100000000000100000000000,
100000000000000000000000000000000000000000000000,
100000000000100000000000100000000000100000000000,
100000000000000000000000000000000000000000000000,
#GOGOSTART
100000000000200000000000100000000000000000000000,
100000000000200000000000100000000000000000000000,
100000000000200000000000100000000000000000000000,
100000000000200000000000100000000000000000000000,
100000000000000000000000000000000000000000000000,
300000000000000000000000000000000000000000000000,
100000000000000000000000100000000000000000000000,
100000000000000000000000100000000000000000000000,
500000000000000000000000000000000000000000008000,
000000000000000000000000000000100000000000000000,
500000000000000000000000000000000000000000008000,
000000000000000000000000000000000000000000000000,
000000000000000000000000000000000000000000000000,
000000000000000000000000100000000000000000000000,
000000000000000000000000100000000000000000000000,
100000000000000000000000100000000000000000000000,
100000000000000000000000000000000000000000000000,
000000000000000000000000100000000000000000000000,
000000000000000000000000200000000000000000000000,
100000000000000000000000200000000000000000000000,
100000000000000000000000000000300000000000000000,
300000000000000000000000000000000000000000000000,
100000000000000000000000100000000000000000000000,
100000000000100000000000100000000000100000000000,
300000000000000000000000300000000000000000000000,
300000000000000000000000000000000000000000000000,
#GOGOEND
#END

COURSE:Easy
LEVEL:4
STYLE:Double
#START P1
#MEASURE 2/4
#BPMCHANGE 190
0100,
#MEASURE 4/4
1,
,
11,
1,
11000000,
11000000,
12,
11000000,
33,
3,
00000100,
500000000000000000000000000000000000000000000008,
,
12,
1,
,
00001100,
11,
1,
,
11,
,
1,
,
,
,
3,
500000000000000000000000000000000008000000000000,
3,
3,
12,
1,
12,
12,
0001,
1,
12,
12,
0001,
1,
11,
00110000,
11,
00110000,
11,
500000000000000000000008000000000000000000000000,
12,
,
12,
,
11,
0202,
11,
1,
00000100,
1,
,
00000100,
10000300,
3,
00000300,
3,
,
12,
1,
11000000,
12,
11000000,
11,
11000000,
11,
11000000,
,
1110,
,
1110,
,
1110,
,
,
1111,
1,
,
1210,
,
1210,
1,
3,
11,
,
500000000000000000000000000000000000000000000008,
00000100,
500000000000000000000000000000000000000000000008,
,
,
01,
,
11,
1,
,
02,
12,
000000300,
3,
1,
1100,
33,
3,
#END
#START P2
#MEASURE 2/4
#BPMCHANGE 190
0100,
#MEASURE 4/4
1,
,
11000000,
11000000,
11,
1,
11000000,
12,
33,
3,
00000100,
500000000000000000000000000000000000000000000008,
,
,
00001100,
12,
1,
,
,
11,
,
11,
,
,
3,
,
,
500000000000000000000000000000000008000000000000,
3,
3,
,
,
0001,
1,
12,
12,
0001,
1,
12,
12,
00110000,
11,
00110000,
11,
00110000,
500000000000000000000008000000000000000000000000,
,
12,
,
12,
0202,
11,
0200,
1,
,
,
00000100,
1,
00000300,
3,
,
00000300,
3,
,
,
12,
11000000,
12,
11000000,
11,
11000000,
11,
1,
,
1110,
,
1110,
,
1111,
1,
,
,
1210,
,
1210,
,
1,
3,
,
11,
500000000000000000000000000000000000000000000008,
00000100,
500000000000000000000000000000000000000000000008,
,
,
,
01,
11,
,
01,
,
00000300,
3,
,
01,
0011,
33,
3,
#END
STYLE:Single
BALLOON:10,10,10
SCOREINIT:780
SCOREDIFF:210
#START
#MEASURE 6/4
000000000000900000000000000000000000000000000000000000000000000000000000,
#MEASURE 4/4
000000000000000000008000000000000000000000000000,
100000000000000000000000100000000000000000000000,
100000000000000000000000000000000000000000000000,
100000000000000000000000100000000000000000000000,
100000000000000000000000000000000000000000000000,
100000000000000000000000000000000000000000000000,
100000000000000000000000000000000000000000000000,
300000000000000000000000300000000000000000000000,
900000000000000000000000000000000000000000000000,
000000008000000000000000000000000000000000000000,
500000000000000000000000000000000000000000008000,
000000000000000000000000000000000000000000000000,
100000000000000000000000100000000000000000000000,
100000000000000000000000000000000000000000000000,
100000000000000000000000100000000000000000000000,
100000000000000000000000000000000000000000000000,
100000000000000000000000000000000000000000000000,
100000000000000000000000000000000000000000000000,
100000000000000000000000100000000000000000000000,
100000000000000000000000100000000000000000000000,
100000000000000000000000100000000000000000000000,
100000000000000000000000000000000000000000000000,
000000000000000000000000000000000000000000000000,
300000000000000000000000000000000000000000000000,
000000000000000000000000000000000000000000000000,
300000000000000000000000000000000000000000000000,
500000000000000000000000008000000000000000000000,
300000000000000000000000000000000000000000000000,
300000000000000000000000000000000000000000000000,
100000000000000000000000000000000000000000000000,
100000000000000000000000000000000000000000000000,
200000000000000000000000000000000000000000000000,
200000000000000000000000000000000000000000000000,
200000000000000000000000000000000000000000000000,
200000000000000000000000000000000000000000000000,
200000000000000000000000000000000000000000000000,
200000000000000000000000000000000000000000000000,
200000000000000000000000000000000000000000000000,
200000000000000000000000000000000000000000000000,
100000000000000000000000100000000000000000000000,
100000000000000000000000100000000000000000000000,
100000000000000000000000100000000000000000000000,
100000000000000000000000100000000000000000000000,
100000000000000000000000100000000000000000000000,
500000000000000000008000000000000000000000000000,
#GOGOSTART
100000000000000000000000000000000000000000000000,
100000000000000000000000000000000000000000000000,
100000000000000000000000000000000000000000000000,
100000000000000000000000100000000000000000000000,
100000000000000000000000000000000000000000000000,
100000000000000000000000100000000000000000000000,
100000000000000000000000000000000000000000000000,
100000000000000000000000000000000000000000000000,
000000000000000000000000000000000000000000000000,
100000000000000000000000000000000000000000000000,
000000000000000000000000000000000000000000000000,
100000000000000000000000000000000000000000000000,
100000000000000000000000000000000000000000000000,
300000000000000000000000000000000000000000000000,
000000000000000000000000000000000000000000000000,
300000000000000000000000000000000000000000000000,
#GOGOEND
300000000000000000000000000000000000000000000000,
100000000000000000000000000000000000000000000000,
100000000000000000000000000000000000000000000000,
100000000000000000000000100000000000000000000000,
100000000000000000000000100000000000000000000000,
100000000000000000000000100000000000000000000000,
100000000000000000000000100000000000000000000000,
100000000000000000000000000000000000000000000000,
100000000000000000000000000000000000000000000000,
100000000000000000000000000000000000000000000000,
100000000000000000000000000000000000000000000000,
100000000000100000000000100000000000000000000000,
100000000000100000000000100000000000000000000000,
100000000000100000000000100000000000000000000000,
100000000000100000000000100000000000000000000000,
100000000000100000000000100000000000000000000000,
500000000000000000000000000000000000000000008000,
000000000000000000000000000000000000000000000000,
600000000000000000000000000000000000000000008000,
000000000000000000000000000000000000000000000000,
#GOGOSTART
100000000000000000000000100000000000000000000000,
100000000000100000000000100000000000000000000000,
100000000000000000000000100000000000000000000000,
100000000000100000000000100000000000000000000000,
100000000000000000000000000000000000000000000000,
300000000000000000000000000000000000000000000000,
100000000000000000000000100000000000000000000000,
100000000000000000000000100000000000000000000000,
500000000000000000000000000000000000000000008000,
000000000000000000000000000000000000000000000000,
900000000000000000000000000000000000000000000000,
000000008000000000000000000000000000000000000000,
000000000000000000000000000000000000000000000000,
000000000000000000000000100000000000000000000000,
000000000000000000000000100000000000000000000000,
100000000000000000000000100000000000000000000000,
100000000000000000000000000000000000000000000000,
000000000000000000000000100000000000000000000000,
000000000000000000000000100000000000000000000000,
100000000000000000000000100000000000000000000000,
100000000000000000000000000000000000000000000000,
300000000000000000000000000000000000000000000000,
100000000000000000000000100000000000000000000000,
100000000000000000000000100000000000000000000000,
300000000000000000000000300000000000000000000000,
300000000000000000000000000000000000000000000000,
#GOGOEND
#END
