// PeepoDrumKit 2022/09/10
TITLE:Rough: CHA0Z
SUBTITLE:--Nothing But Requiem
BPM:256
WAVE:RoughCHA0Z.ogg
OFFSET:-1.325
DEMOSTART:1.325
SEVOL:65

COURSE:Oni
LEVEL:10
BALLOON:11
SCOREINIT:
SCOREDIFF:
#START
#BARLINEOFF
0,
,
,
,
,
,
,
,
,
,
#SCROLL 5
0000000000600800,
#GOGOSTART
#BARLINEON
#SCROLL 1
300000000000000000000000000100100000
#SCROLL 1.2
200020002000,
#SCROLL 1
10
#SCROLL 1.25
22
#SCROLL 1
10
#SCROLL 1.3
22
#SCROLL 1
10
#SCROLL 1.5
22
#SCROLL 1
10
#SCROLL 2
20,
#SCROLL 5
500000000000000008000000
#SCROLL 1
100000100000100000100000,
#SCROLL 7
500000000000000008000000
#SCROLL 1
100000100000100000000000,
10
#SCROLL 1.25
22
#SCROLL 1
10
#SCROLL 1.3
22
#SCROLL 1
10
#SCROLL 1.4
22
#SCROLL 1
10
#SCROLL 1.5
22,
#SCROLL 1
100000
#SCROLL 1.7
200200
#SCROLL 1
100000
#SCROLL 1.8
200200
#SCROLL 1
100000000000
#SCROLL 2
200020002000,
#SCROLL 5
500000000000000000000008
#SCROLL 1
000000300000300000300000,
#SCROLL 7
60000008,
#GOGOEND
#BARLINEOFF
#BPMCHANGE 256
#SCROLL 1
000000002000000020000000000000000200000000200000,
000000000000000000000000000000000000000000000000000200000000000000000000000000000000000000200000000000000000000000000000000000000000000000000000000000000000000000000000000000002000000000000000,
00000200000007000000000080000000,
#BPMCHANGE 315
0,
#BARLINEON
#BPMCHANGE 256
2000200020002220,
#GOGOSTART
#SCROLL 2
3000
#SCROLL 1
111111
#GOGOEND
111222,
101110111010
#GOGOSTART
#SCROLL 2
3000,
300000
#SCROLL 1
100100100
#GOGOEND
100100100100010001000200020002000,
100000100100100000100000
#GOGOSTART
#SCROLL 2
300000003000000030000000,
300
#GOGOEND
#SCROLL 1
111111222,
111111111010
#GOGOSTART
#SCROLL 2
3030,
30
#SCROLL 1
1110
#GOGOEND
1011112222,
#SCROLL 5
5008,
#SCROLL 1
1002102012021020,
1002102012221222,
1002102012021020,
12221212,
1002102012021020,
1002102012221222,
1002102012021020,
100000200000200000200000
#SCROLL 5
500000000000000008000000,
#SCROLL 1
1000200020202222,
#BARLINEOFF
#SCROLL 0.5
20
#SCROLL 1
202220,
1020200020202222,
#SCROLL 0.5
2
#SCROLL 1
222202022222020,
1000200020202222,
#SCROLL 0.5
2
#SCROLL 1
222200020202000,
#MEASURE 8/4
#BARLINEON
12221020102222201222102010222220,
1000
#SCROLL 0.5
2000
#SCROLL 1
1000
#SCROLL 0.75
2
#SCROLL 1
2221000
#SCROLL 0.5
2000
#SCROLL 1
1000
#SCROLL 0.75
2000,
#SCROLL 1
1020
#SCROLL 0.5
2000
#SCROLL 1
1000
#SCROLL 0.75
20
#SCROLL 1
201222101222101222,
1000
#SCROLL 0.5
2000
#SCROLL 1
1000
#SCROLL 0.75
2
#SCROLL 1
2221020
#SCROLL 0.5
2000
#SCROLL 1
1000
#SCROLL 0.75
2000,
#SCROLL 1
12222102101020201222210210102020,
#MEASURE 4/4
#BPMCHANGE 252
#SCROLL 1.01587
1222
#BPMCHANGE 261
#SCROLL 0.980843
1222,
#BPMCHANGE 225
#SCROLL 1.13778
12
#BPMCHANGE 228
#SCROLL 1.12281
22
#BPMCHANGE 231
#SCROLL 1.10823
12
#BPMCHANGE 241
#SCROLL 1.06224
2
#BPMCHANGE 230
#SCROLL 1.11304
2,
#BPMCHANGE 210
#SCROLL 1.21905
1
#BPMCHANGE 205
#SCROLL 1.24878
2
#BPMCHANGE 210
#SCROLL 1.21905
22
#BPMCHANGE 200
#SCROLL 1.28
1
#BPMCHANGE 185
#SCROLL 1.38378
2
#BPMCHANGE 195
#SCROLL 1.31282
2
#BPMCHANGE 185
#SCROLL 1.38378
2,
#BPMCHANGE 170
#SCROLL 1.50588
12
#BPMCHANGE 175
#SCROLL 1.46286
2
#BPMCHANGE 160
#SCROLL 1.6
2
#BPMCHANGE 153
#SCROLL 1.6732
12
#BPMCHANGE 150
#SCROLL 1.70667
22,
#BPMCHANGE 175
#SCROLL 1.46286
2
#BPMCHANGE 130
#SCROLL 1.96923
2
#BPMCHANGE 115
#SCROLL 2.22609
2
#BPMCHANGE 110
#SCROLL 2.32727
2,
#BARLINEOFF
#BPMCHANGE 97
#SCROLL 2.63918
2
#BPMCHANGE 91
#SCROLL 2.81319
2
#BPMCHANGE 193
#SCROLL 1.32642
200000,
000
#BPMCHANGE 195
0,
#BARLINEON
#BPMCHANGE 200
#SCROLL 1
2020200000002220,
2020222000222222,
#BPMCHANGE 210
#SCROLL 0.952381
2022202000202020,
20220000,
#BPMCHANGE 220
#SCROLL 1
1111,
#BPMCHANGE 230
1111,
#BPMCHANGE 240
11
#SCROLL 1.10417
11
#SCROLL 1.20833
11
#SCROLL 1.25
11,
#BPMCHANGE 250
#SCROLL 1.3
11
#SCROLL 1.4
11
#SCROLL 1.5
11
#SCROLL 1.6
11
#SCROLL 1.7
11
#SCROLL 1.8
11
#SCROLL 1.9
11
#SCROLL 2
11,
#GOGOSTART
#BPMCHANGE 256
#SCROLL 1
1011101020101111,
1011102020101111,
1011202020101111,
100200200200200000
#SCROLL 5
500000000000000008000000
#SCROLL 1
100100,
11211211,
21212121,
2011102011102011,
100000200000200000
#GOGOEND
#SCROLL 5
500000000000000000000008000000,
#GOGOSTART
#SCROLL 2
30003000
#GOGOEND
#SCROLL 0.898438
11211000,
#GOGOSTART
#SCROLL 2
30003000
#GOGOEND
#SCROLL 0.78125
12121000,
#GOGOSTART
#SCROLL 2
30003000
#GOGOEND
#SCROLL 0.703125
12221000,
#GOGOSTART
#SCROLL 2
30003000
#GOGOEND
#SCROLL 0.585938
22122000,
#GOGOSTART
#SCROLL 1
1111,
1111,
11
#SCROLL 1.09375
11
#SCROLL 1.21094
11
#SCROLL 1.25
11,
#SCROLL 1.3
11
#SCROLL 1.4
11
#SCROLL 1.5
11
#SCROLL 1.6
11
#SCROLL 1.7
11
#SCROLL 1.8
11
#SCROLL 1.9
11
#SCROLL 2
11,
#GOGOEND
#SCROLL 1
002020002020,
002020002020,
#SCROLL 2
4,
#BARLINEOFF
0,
#GOGOSTART
#BARLINEON
#SCROLL 1
1011101020101111,
1011102020111111,
1011102020201111,
1222211111
#SCROLL 0.75
2
#SCROLL 1
111
#SCROLL 0.75
2
#SCROLL 1
1,
1010201210201011,
2021201120212011,
2011102011
#SCROLL 0.75
2
#SCROLL 1
111
#SCROLL 0.75
20,
#SCROLL 1
22
#SCROLL 1.1
22
#SCROLL 1.2
22
#SCROLL 1.3
22
#SCROLL 1.4
22
#SCROLL 1.5
22
#SCROLL 1.6
2220,
#GOGOEND
#SCROLL 1
1012101020002010,
100200100000
#SCROLL 5
500008000000
#SCROLL 1
100200200200100200200200,
#GOGOSTART
1022201022201111,
1222212221212121,
1010201210201110,
211211212121,
200200200200
#SCROLL 5
500008000000
#SCROLL 1
200200200200
#SCROLL 5
500008000000,
#SCROLL 1
121210
#GOGOEND
#SCROLL 8
5000008000,
#GOGOSTART
#SCROLL 1
1
#SCROLL 1.09375
22
#SCROLL 1
1
#SCROLL 1.09375
22
#SCROLL 1
1
#SCROLL 1.1
22
#SCROLL 1
1
#SCROLL 1.1
22,
#SCROLL 1
1
#SCROLL 1.2
22
#SCROLL 1
1
#SCROLL 1.2
22
#SCROLL 1
1
#SCROLL 1.25
22
#SCROLL 1
1
#SCROLL 1.3
22,
#SCROLL 1
1
#SCROLL 1.35
22
#SCROLL 1
1
#SCROLL 1.4
22
#SCROLL 1
1
#SCROLL 1.5
22
#SCROLL 1
1
#SCROLL 1.6
22,
#SCROLL 1
1
#SCROLL 1.65
22
#SCROLL 1
1
#SCROLL 1.75
22
#SCROLL 1
1
#SCROLL 1.85
22
#SCROLL 1
1
#SCROLL 1.95
22,
#SCROLL 1
100020202000100020202000100000200200200200200000,
100000
#SCROLL 2
200200
#SCROLL 1.5
200200
#SCROLL 1.25
200200
#SCROLL 1.1
200000
#SCROLL 1
100000
#SCROLL 4.5
500008000000,
#BPMCHANGE 260
#SCROLL 0.984615
100010000100001000010000
#BPMCHANGE 230
#SCROLL 1.11304
100000200000000000200000,
#BPMCHANGE 220
#SCROLL 1.18182
200000000200
#BPMCHANGE 230
#SCROLL 1.26087
000200000000
#BPMCHANGE 200
#SCROLL 1.45
20000000
#SCROLL 1.55
2000
#BPMCHANGE 190
#SCROLL 1.63158
000020000000
#SCROLL 1.78947
200000200000
#SCROLL 2
200000200000
#SCROLL 2.21053
200000200000
#SCROLL 2.36842
200000200000,
#GOGOEND
#BPMCHANGE 180
#SCROLL 1.42222
0,
#BARLINEOFF
#SCROLL 1
0,
,
,
00
#BPMCHANGE 180.5
00,
#GOGOSTART
#BARLINEON
#BPMCHANGE 333
#SCROLL 1.5
30
#GOGOEND
#SCROLL 1
1110101110
#SCROLL 0.75
20
#SCROLL 1
10,
111110111110
#GOGOSTART
#SCROLL 1.5
3030,
30
#GOGOEND
#SCROLL 1
10
#SCROLL 0.75
2220
#SCROLL 1
10111110,
11111010
#GOGOSTART
#SCROLL 1.5
30
#SCROLL 1
20
#SCROLL 1.5
30
#SCROLL 1
20,
#SCROLL 1.5
30
#GOGOEND
#SCROLL 1
1111111110
#SCROLL 0.75
2
#SCROLL 0.75
220,
#SCROLL 1
101111111110
#SCROLL 0.75
2020,
#MEASURE 1/8
#GOGOSTART
#SCROLL 1.5
3,
#MEASURE 7/8
#SCROLL 1
000
#GOGOEND
100000000100
#SCROLL 5
000500008
#SCROLL 1
000100000100100000,
#MEASURE 4/8
#GOGOSTART
#BPMCHANGE 280
#SCROLL 1.78393
300030003
#SCROLL 0.594643
200,
#BPMCHANGE 260
#SCROLL 1.92115
30000000000000000000000000000000300000000000000000000000
#SCROLL 0.640385
0200000000000000
#SCROLL 1.92115
300000000000000000000000,
#BPMCHANGE 240
#SCROLL 2.08125
300000300030000000300
#SCROLL 0.69375
200,
#BPMCHANGE 220
#SCROLL 2.27045
3000300030003000300
#SCROLL 0.756818
20000,
#BPMCHANGE 200
#SCROLL 2.4975
300030000000300000003000
#SCROLL 0.8325
02000000,
#BPMCHANGE 180
#SCROLL 2.775
300033333300,
#BPMCHANGE 160
#SCROLL 3.12188
300
#SCROLL 1.04062
200200
#SCROLL 3.12188
300303030300000,
#BPMCHANGE 140
#SCROLL 3.56786
300003000000
#SCROLL 1.18929
202020002000
#GOGOEND
#SCROLL 3.56786
10000000,
#MEASURE 4/4
#SCROLL 1.18929
0
#SCROLL 1.18929
2000000,
#SCROLL 5.46429
03000000,
#BARLINEOFF
0,
,
,
0
#SCROLL 0.0679
20000000000,
,
,
#END
