//TJADB Project
TITLE:Oshiete, Kuma Tomo
TITLEJA:おしえて くまとも
SUBTITLE:--Katsuro Tajima feat. Mitsu/Kuma Tomo
SUBTITLEJA:「クマ・トモ」テーマ曲
BPM:135
WAVE:Oshiete, Kuma Tomo.ogg
OFFSET:-2.067
DEMOSTART:71.837

COURSE:Oni
LEVEL:8
SCOREINIT:400
SCOREDIFF:110
#START
10111202,
02012201,
01011221,
0020202020222222,
1122102010112120,
11220202,
1120201010200010,
03433000,
10221202,
10112010,
10221202,
12121200,
11211021,
12211021,
10211202,
10202200,
12121202,
1022102010002000,
12121202,
1022102010200000,
12121020,
1022102010002000,
1022102210200020,
500000000000000000000000000008000000000000100100,
1010001000222010,
1022102010202011,
1010001000222010,
1022102010202011,
1010001000222010,
1022102011202010,
500000000000000000000000000000000000000008000000,
2010001000111020,
1020002010221020,
1020201011221020,
1020002010221020,
1020201011221020,
1020002010221020,
1020201011221020,
10304043,
0020202020222222,//40
#GOGOSTART
1022112010112020,
1022112010112020,
1022112010112020,
1022112010112212,
1011210210221202,
1011221210221210,
1011210210221202,
1011221210202020,
1022120211210120,
1022120211210120,
00304044,//51
#GOGOEND
0020202020222222,//52
#GOGOSTART
1022112010112020,
1022112010112020,
1022112010112020,
1022112010112212,
1011210210221202,
1011221210221210,
1011210210221202,
1011221210221210,
1022120211210210,
1022120211210210,//63
#GOGOEND
01011011,
01011111,
01011011,
01011022,
02022022,
02022022,
0022202022202020,
02022022,
0022204022204040,
0040004040222222,
1022101010200020,
1022101020222020,
1022101010202010,
0020202020222222,
1122102010112120,
11220202,
1120201010200010,
03433000,
#END

COURSE:Hard
LEVEL:5
SCOREINIT:540
SCOREDIFF:140
#START
1202,
0202,
00200220,
0202,
10211220,
10210202,
10211201,
03433000,
10112202,
10112000,
10112202,
10201200,
10211020,
10211020,
10211202,
10202200,
10112202,
1110,
10112202,
10101200,
10211020,
10211020,
10211202,
500000000000000000000000000008000000000000100000,
1000001020000011,
10101021,
1000001020000011,
1112,
1010001000202011,
1112,
500000000000000000000000000000000000000000000008,
,
12020220,
1020002000202011,
12020220,
12020221,
10220000,
00122002,
500000000000000000000000000000000000000008000000,
0222,//40
#GOGOSTART
1000200000222020,
1000200000222020,
1000200000222020,
1000200000222020,
1212,
10201220,
500000000000000000000000000000000000000008000000,
0212,
12021202,
12021212,
00304043,//51
#GOGOEND
00222020,//52
#GOGOSTART
1000200000222020,
1000200000222020,
1000200000222020,
1000200000222020,
1212,
10201220,
500000000000000000000000000000000000000008000000,
0212,
12021202,
12021122,//63
#GOGOEND
01011011,
01011111,
01011011,
01011022,
01021021,
12022022,
01021021,
02022022,
02044044,
04044000,
10211202,
02012202,
02012211,
02000222,
1110201010202000,
1110201000200020,
1110201010200010,
03433000,
,
#END

COURSE:Normal
LEVEL:3
BALLOON:10
SCOREINIT:580
SCOREDIFF:140
#START
0202,
0202,
00200220,
500000000000000000000000000008000000000000000000,
1110,
10110000,
10101005,
000000000000000000000008000000000000000000000000,
1,
22,
1,
22,
10011000,
10011000,
11,
1,
1110,
1120,
1110,
1120,
10011000,
10011000,
1120,
500000000000000000000000000008000000000000000000,
12,
0110,
12,
0111,
12,
0111,
9009,
8,
12,
0110,
12,
0111,
12,
00111001,
500000000000000000000000000000000000000008000000,
0111,//40
#GOGOSTART
10000110,
10000110,
10000220,
20000333,
3344,
0334,
500000000000000000000000000000000000000008000000,
0334,
43,
40003333,
00700008,//51
#GOGOEND
0111,//52
#GOGOSTART
10000110,
10000110,
10000110,
10000333,
3344,
0334,
500000000000000000000000000000000000000008000000,
0334,
43,
40004444,//63
#GOGOEND
0202,
00200022,
0202,
00200022,
02022022,
02022000,
02022022,
02022000,
04044044,
04044000,
1110,
12,
1110,
500000000000000000000000000008000000000000000000,
1110,
10110000,
10101005,
000000000000000000000008000000000000000000000000,
,
#END

COURSE:Easy
LEVEL:2
BALLOON:7,7
SCOREINIT:530
SCOREDIFF:130
#START
0202,
0202,
0200,
500000000000000000000000000008000000000000000000,
11,
500000000000000000000000000008000000000000000000,
10101005,
000000000000000000000008000000000000000000000000,
1,
1,
1,
11,
12,
12,
1110,
1,
11,
12,
11,
12,
12,
12,
1110,
500000000000000000000000000008000000000000000000,
12,
1,
12,
1,
12,
12,
9009,
8,
12,
0110,
12,
0110,
12,
0110,
9009,
8,//40
#GOGOSTART
1001,
1001,
1002,
2,
3333,
0333,
600000000000000000000000000000000000000008000000,
0333,
34,
3044,
00700008,//51
#GOGOEND
,//52
#GOGOSTART
1001,
1001,
1002,
2,
3333,
0333,
600000000000000000000000000000000000000008000000,
0333,
34,
3044,//63
#GOGOEND
01,
0110,
01,
0110,
12,
0220,
12,
0220,
44,
4440,
1110,
11,
1110,
500000000000000000000000000008000000000000000000,
11,
500000000000000000000000000008000000000000000000,
10101005,
000000000000000000000008000000000000000000000000,
,
#END
