//TJADB Project
TITLE:My Soul, Your Beats!
TITLEJA:My Soul,Your Beats!
SUBTITLE:--Lia/Angel Beats!
SUBTITLEJA:「Angel Beats!」より
BPM:145
WAVE:My Soul, Your Beats!.ogg
OFFSET:-1.797
DEMOSTART:55.159

COURSE:Oni
LEVEL:8
SCOREINIT:710
SCOREDIFF:200
#START
#MEASURE 5/4
0020
#BPMCHANGE 145.91
2000200010001000,
#MEASURE 4/4
#BPMCHANGE 143.68
00000002,
#BPMCHANGE 145
2211,
00000002,
2212,
#BPMCHANGE 144.72
40000002,
#BPMCHANGE 145.67
2211,
#BPMCHANGE 145.03
,
#BPMCHANGE 145
1020122010201220,
2020202020202020,
22022012,
0040400022112211,
1020112010221000,
1020112010221000,
1110100011105000,
000000000000000000000008000000000000000000000000,
1020112010111000,
1020112010111000,
1110100011105000,
000000000000000000000008000000000000000000000000,
1020112010221000,
1020112010221000,
1110100011105000,
000000000000000000000008000000000000000000000000,
1020112010111000,
1020112010111000,
1110100011101000,
500000000000000000000008000000000000000000000000,
1020112010201220,
1020112010201220,
1120112011201120,
1122112211222022,
#GOGOSTART
1020112011221020,
1020112012221011,
1020112011221020,
1020112012221011,
1011201011221011,
1011201000101010,
1120112011201120,
1122112211111022,
1020112011221020,
1020112012221011,
1020112011221020,
1020112012221011,
1011201022102210,
1120112011201120,
1122112211111022,
#GOGOEND
1011201011201020,
1011201011221020,
1011201011201020,
1011201011221020,
1020112010201120,
1110111011101110,
#END

COURSE:Hard
LEVEL:7
SCOREINIT:1070
SCOREDIFF:260
#START
#MEASURE 5/4
0220202020,
#MEASURE 4/4
00000002,
2222,
00000002,
2222,
40000002,
2222,
,
1111,
22202220,
22022022,
04400000,
10110110,
11110001,
01120250,
000000000000000008000000000000000000000000100000,
1122,
1001,
1115,
000000000000000008000000000000000000000000000000,
10120120,
12210001,
01120250,
000000000000000008000000000000000000000000100000,
1122,
1001,
1122,
600000000000000000000000000000000008000000000000,
11101110,
22202220,
11101110,
600000000000000000000000000000000008000000000000,
#GOGOSTART
1011100010111000,
2022200022202000,
1011100010111000,
1011200010112000,
6,
000000000000000000000008000000000000000000000000,
1110100022202000,
1110222011102000,
1011100010111000,
2022200022202000,
1011100010111000,
1011200010112000,
600000000000000000000000000000000000000008000000,
1011202010112020,
600000000000000000000000000000000008000000000000,
#GOGOEND
1000222011102000,
1000222011101000,
1000222011102000,
1000222011101000,
1000222011105000,
000000000000000000000000000000000000000000000008,
#END

COURSE:Normal
LEVEL:4
SCOREINIT:1380
SCOREDIFF:658
#START
#MEASURE 5/4
0220202020,
#MEASURE 4/4
00000002,
2222,
00000002,
2222,
40000002,
2222,
,
,
2222,
20022022,
04400000,
1110,
1110,
1115,
000000000000000008000000000000000000000000000000,
1011,
1002,
2225,
000000000000000008000000000000000000000000000000,
1110,
1110,
1115,
000000000000000008000000000000000000000000000000,
1011,
1,
2222,
500000000000000000000000000008000000000000000000,
11,
1110,
11,
600000000000000000000000000000000008000000000000,
#GOGOSTART
10110011,
00110000,
10110011,
00110010,
6,
000000000000000000000008000000000000000000000000,
12,
1212,
10110011,
00110000,
10110011,
00110010,
600000000000000000000000000000000008000000000000,
1212,
600000000000000000000000000000000008000000000000,
#GOGOEND
1115,
000000000000000000000008000000000000000000000000,
1115,
000000000000000000000008000000000000000000000000,
1125,
000000000000000000000000000000000000000000000008,
#END

COURSE:Easy
LEVEL:3
SCOREINIT:1190
SCOREDIFF:825
#START
#MEASURE 5/4
0220002020,
#MEASURE 4/4
00000002,
2022,
00000002,
22,
40000002,
2022,
,
11,
22,
4,
,
11,
1110,
1015,
000000000000000008000000000000000000000000000000,
22,
2,
2025,
000000000000000008000000000000000000000000000000,
11,
1110,
1015,
000000000000000008000000000000000000000000000000,
22,
2,
1111,
500000000000000000000000000008000000000000000000,
11,
1,
1111,
500000000000000000000000000008000000000000000000,
#GOGOSTART
11,
1110,
22,
2220,
6,
000000000000000000000000000008000000000000000000,
12,
1110,
11,
1110,
22,
2220,
600000000000000000000000000080000000000000000000,
11,
600000000000000000000000000080000000000000000000,
#GOGOEND
1015,
000000000000000000000008000000000000000000000000,
2025,
000000000000000000000008000000000000000000000000,
1115,
000000000000000000000000000000000000000000000008,
#END
