//TJADB Project
TITLE:Tatakae! T3 Boueitai ~GDI Mix~
TITLEJA:戦え!T3防衛隊 ~GDI mix~
SUBTITLE:--Linda AI-CUE feat. Norion5/TANK! TANK! TANK!
BPM:142
WAVE:Tatakae! T3 Boueitai GDI Mix.ogg
OFFSET:-1.903
DEMOSTART:5.283

COURSE:Oni
LEVEL:8
BALLOON:6,6,11
SCOREINIT:470
SCOREDIFF:118
#START
#SCROLL 0.95
33212121,
200000500000000008000000300000000300000000000000,//2
#GOGOSTART
1011111110010010,
1011111120020020,
1011111110010010,
1011111120020020,
1011111110010010,
1011121110020020,
1011111110010010,
1011121110020020,
1011111110020010,
1011121120020010,
1011111110020010,
1011121120020010,
1011111110020010,
1011121210020010,
1011111110020010,
300000600008000000300000600008000000300000000000,//18
#GOGOEND
1010201110102010,
1110201110102010,
1010401110102010,
1110220220030030,
1010201110102010,
1110201110102010,
1010401110102010,
1110220122012200,
1010201120102011,
1010201120102011,
1010200030030030,
1010201120102011,
1010200030030030,
1101100030030030,
1011201020020021,
1011201020020021,
1011201020020021,
1012201020020000,//36
#GOGOSTART
1111111110110110,
1022222220220220,
200200700000000000080000100000100100100100100100,
1011111110110110,
100000101010100000000030000000030000000000000000,
500000000008000000500000000008000000700000000000,
080000500000000008000000500000000000000000000000,
000008000000000000600000000000000000000008000000,
10001010101010101000101000101000,
100000100100101010100000100000101010100100100000,
100000100100101010100000100000101010100100100000,
1011111110110110,
101010100000300000000000600000000000000008000000,
000000600000000000000000000000000000000008000000,
700000000000000000000000080000101010100000000000,
300000600008000000300000600008000000300000000000,//52
#GOGOEND
3,
00300300,
31111111,
3010101030030030,
20302230,
20302230,
20302230,
2333,//60
#GOGOSTART
1010201120102011,
1010201120102011,
1010200030030030,
1010201120102011,
1010200030030030,
1101100030030030,
1010201120020021,
1011201020020021,
1012201030030030,
1111200030030030,
300000600008000000300000600008000000100100100000,
300000600008000000300000600008000000100100100000,
33212121,
200000500000000008000000300000000300000000000000,
33000000,//75
#GOGOEND
#END

COURSE:Hard
LEVEL:7
BALLOON:30,10,5,15,15
SCOREINIT:540
SCOREDIFF:130
#START
30111111,
100000500000008000000000300000000300000000000000,//2
#GOGOSTART
1011100010010010,
1011100010010010,
1011100010010010,
1011100010010010,
1011100020020020,
1011100020020020,
1011100020020020,
1011100020020020,
1110100020020010,
1110100020020010,
1110100020010010,
1110100020010010,
1110100020020010,
1110100020020010,
1110100020020030,
300000600008000000300000600008000000300000000000,//18
#GOGOEND
11201120,
1011201000102000,
11201120,
1011200010010010,
11201120,
1011201000102000,
11201120,
1222,
1010200010112000,
1010200010112000,
1000200030030030,
3000200010112000,
300000000000300000000000300000600000008000000000,
9,
09,
8,
,
,//36
#GOGOSTART
1011100010010011,
1000200020020020,
2022200010010011,
1000000010111000,
100000100100100000000010000000010000000000000000,
500000008000000000000000500000008000000000000000,
500000008000000000000000500000000000000000008000,
0708,
0000101110001010,
1000101110001010,
1000101110001010,
1000101110100030,
1111030007000080,
07000000,
8,
300000600008000000300000600008000000300000000000,//52
#GOGOEND
3,
00300300,
3111,
3000300030030030,
2323,
2323,
2323,
2333,//60
#GOGOSTART
1010200010112000,
1010200010112000,
1010200030030030,
600000000000000000000008000000000000000000000000,
300000000000300000000000300000600000008000000000,
300000000000300000000000600000000000000008000000,
9009,
8,
3000300030030030,
3000400030030030,
300000600008000000300000600008000000300000000000,
300000600008000000300000600008000000300000000000,
30111111,
100000500000008000000000300000000300000000000000,
33000000,//75
#GOGOEND
,
,
,
#END

COURSE:Normal
LEVEL:4
BALLOON:20,4,8,12,10
SCOREINIT:1000
SCOREDIFF:180
#START
3,
600000000000008000000000300000000000000000000000,//2
#GOGOSTART
11101000,
11101000,
5,
000000000008000000000000100000000000000000000000,
11101000,
11101000,
5,
000000000008000000000000100000000000000000000000,
22202000,
22202000,
600000000000000000000000000000000008000000000000,
33,
11101000,
11101000,
10111000,
600000000000000000008000000000300000300000000000,//18
#GOGOEND
1212,
1101,
1212,
1100,
1212,
1101,
1212,
1100,
1202,
1202,
1033,
3,
100000000000100000000000600000000000008000000000,
300000000000000000000000300000600000008000000000,
9,
09,
8,
,//36
#GOGOSTART
30001011,
1022,
2003,
30001011,
1,
500000000008000000000000500000000008000000000000,
500000000008000000000000500000000000000000008000,
,
1101,
1101,
1101,
1011,
10007008,
0700,
0089,
0009,//52
#GOGOEND
8,
00300300,
3,
3,
0303,
0303,
0303,
0333,//60
#GOGOSTART
1222,
1222,
1033,
3,
100000000000100000000000600000000000008000000000,
300000000000000000000000300000600000008000000000,
9009,
8,
100000000000100000000000500000000000008000000000,
3033,
600000000000000000000000008000000000300000000000,
600000000000000000000000008000000000300000000000,
3,
300000600000008000000000300000000000000000000000,
33000000,//75
#GOGOEND
,
,
,
#END

COURSE:Easy
LEVEL:4
BALLOON:15,3,6,10
SCOREINIT:610
SCOREDIFF:110
#START
3,
600000000000000000000000000008000000000000000000,//2
#GOGOSTART
1110,
1110,
5,
000000000000000000000008000000000000000000000000,
1110,
1110,
5,
000000000000000000000008000000000000000000000000,
2220,
2220,
22,
2,
1110,
1110,
11,
600000000000000000000000000008000000000000000000,//18
#GOGOEND
11,
1101,
11,
1,
11,
1101,
11,
1,
12,
12,
1033,
3,
1133,
300000000000000000000000600000000000008000000000,
9,
09,
8,
,//36
#GOGOSTART
3033,
3044,
4003,
3033,
,
500000000008000000000000500000000008000000000000,
500000000008000000000000500000000000000000008000,
,
0300,
0303,
0303,
3,
30307008,
0700,
80000900,
00000900,//52
#GOGOEND
8,
00300300,
3,
3,
0303,
0303,
0303,
0333,//60
#GOGOSTART
1202,
1202,
1033,
3,
1133,
3033,
6,
000000000000000000000008000000000000000000000000,
1133,
3033,
6,
000000000000000000000008000000000000000000000000,
3,
300000600000000000000000000008000000000000000000,
33000000,//75
#GOGOEND
,
,
,
#END
