//TJADB Project
TITLE:GOIN’‽
TITLEJA:GOIN’!!!
SUBTITLE:--Mayu Miyazaki feat. CINDERELLA PROJECT/THE iDOLM@STER Cinderella Girls
SUBTITLEJA:「アイドルマスター シンデレラガールズ」より
BPM:178
WAVE:GOIN!!!.ogg
OFFSET:-2.801
DEMOSTART:80.996 //Shinuchi:
5070/4470/2870/2380/1720

COURSE:Edit
LEVEL:8
BALLOON:14
SCOREINIT:560,1930
SCOREDIFF:145
#START
11,
11,
22,
2,
22,
2, //6
2,
2002,
2222,
20021002,
11111111,
3011111030111110,
4000000000000011,
2010201120104022, //14
1010
#GOGOSTART
2010
#GOGOEND
1210
#GOGOSTART
2010, //15
#GOGOEND
0010
#GOGOSTART
2011
#GOGOEND
1010
#GOGOSTART
2000, //16
#GOGOEND
2010
#GOGOSTART
2010
#GOGOEND
1210
#GOGOSTART
2010, //17
#GOGOEND
0010
#GOGOSTART
2010
#GOGOEND
0011
#GOGOSTART
2022, //18
#GOGOEND
1011
#GOGOSTART
2010
#GOGOEND
0011
#GOGOSTART
2010, //19
#GOGOEND
0011
#GOGOSTART
2012
#GOGOEND
1010
#GOGOSTART
2000, //20
#GOGOEND
1111
#GOGOSTART
2000
#GOGOEND
1111
#GOGOSTART
2000, //21
#GOGOEND
33
#GOGOSTART
00
#GOGOEND
33
#GOGOSTART
00, //22
#GOGOEND
11210121,
10201120,
1000202210102010,
#GOGOSTART
2000202220202000,
#GOGOEND
10210120,
1000202210102000,
1000201110102011,
2011201040004000, //30
1010201110102010,
1000201110102000,
1000202210102010,
#GOGOSTART
2000202220202000,
#GOGOEND
1010200210102022,
1010200210102000,
1110200110102022,
1010200110101000, //38
30
#SCROLL 2
4
#SCROLL 1
0,
500000000000000000000008000000000000400000000000,
500000000000000000000008000000000000400000000000,
500000000000000000000008000000000000400000000000,
500000000000000000000008000000000000400000000000,
500000000000000000000008000000000000400000000000,
500000000000000000000008000000000000400000000000,
#SCROLL 2
#GOGOSTART
3
#GOGOEND
#SCROLL 1
0
#GOGOSTART
#SCROLL 2
3
#GOGOEND
#SCROLL 1
0, //46
1010201110102011,
2010201110102000,
1010201110102011,
2010201110102000,
1011201000121010,
0011201000121022,
1110300011103000,
1110300011103000, //54
1010101011111110,
#SCROLL 3
#GOGOSTART
600000000000000000000000000000000008000000000000,
#GOGOEND
#SCROLL 0.5
34,
34, //58
#SCROLL 1
#GOGOSTART
3000
#GOGOEND
4000
#GOGOSTART
30004011,
212101
#GOGOEND
20, //60
#GOGOSTART
3
#GOGOEND
4
#GOGOSTART
34,
1120201000102022, //62
1010201210102022,
1010201210102022,
1111222211112222,
11221210
#SCROLL 2
4000
#GOGOEND
4000, //66
#SCROLL 1
#GOGOSTART
3000
#GOGOEND
4000
#GOGOSTART
30004011,
212101
#GOGOEND
20, //68
#GOGOSTART
3
#GOGOEND
4
#GOGOSTART
34,
1120201000102022, //70
1010201210102022,
1010201210102022,
1122112211112222,
1000202110101000,
500000000000000000000008000000000000400000000000,
500000000000000000000008000000000000400000000000,
500000000000000000000008000000000000400000000000,
500000000000000008000000400000000000400000000000, //78
1111
#GOGOEND
2000
#SCROLL 2
#GOGOSTART
3000
#SCROLL 1
0000,
1111
#GOGOEND
2000
#SCROLL 2
#GOGOSTART
3000
#GOGOEND
#SCROLL 1
0000, //80
#SCROLL 3
#GOGOSTART
4000
#SCROLL 1
101010101110,
3000111030000000, //82
700008,
1010201220101020, //84
0
#GOGOEND
#SCROLL 2
3,
#BARLINEOFF
#SCROLL 1
0,
#SCROLL 2
0000002210000000,
#SCROLL 1
0, //88
#END

COURSE:Oni
LEVEL:6
BALLOON:
SCOREINIT:710,2830
SCOREDIFF:195
#START
11,
11,
22,
2,
22,
2, //6
2,
2002,
2222,
20021002,
11111111,
33,
6,
000000000000000000000008000000000000400000000000, //14
1010
#GOGOSTART
2020
#GOGOEND
1110
#GOGOSTART
2020, //15
#GOGOEND
01
#GOGOSTART
21
#GOGOEND
01
#GOGOSTART
20, //16
#GOGOEND
1010
#GOGOSTART
2020
#GOGOEND
1110
#GOGOSTART
2020, //17
#GOGOEND
01
#GOGOSTART
21
#GOGOEND
01
#GOGOSTART
20, //18
#GOGOEND
1010
#GOGOSTART
1011
#GOGOEND
1010
#GOGOSTART
1011, //19
#GOGOEND
11
#GOGOSTART
11
#GOGOEND
01
#GOGOSTART
20, //20
#GOGOEND
11
#GOGOSTART
20
#GOGOEND
11
#GOGOSTART
20, //21
#GOGOEND
33
#GOGOSTART
00
#GOGOEND
33
#GOGOSTART
00,//22
#GOGOEND
11210121,
1212,
10210120,
#GOGOSTART
500000000000000000000000000000000008000000000000, //26
#GOGOEND
10210120,
1212,
10210121,
01204040,
11210121,
1212,
10210120,
#GOGOSTART
500000000000000000000000000000000008000000000000, //34
#GOGOEND
10201120,
1144,
33,
3333,
34,
500000000000000000000008000000000000400000000000,
500000000000000000000008000000000000400000000000,
500000000000000000000008000000000000400000000000, //42
500000000000000000000008000000000000400000000000,
500000000000000000000008000000000000400000000000,
500000000000000000000008000000000000400000000000,
#GOGOSTART
3
#GOGOEND
0
#GOGOSTART
3
#GOGOEND
0, //46
10210121,
20210120,
10210121,
20210120,
1011101000111010,
0011101000111010,
1313,
1313, //54
11111111,
#SCROLL 2
#GOGOSTART
600000000000000000000000000008000000000000000000,
#GOGOEND
#SCROLL 1
34,
34, //58
#GOGOSTART
30
#GOGOEND
40
#GOGOSTART
3041,
101101
#GOGOEND
00, //60
#GOGOSTART
3
#GOGOEND
4
#GOGOSTART
34,
10110121, //62
1010200011102000,
1010200011102000,
1110111020002000,
111011104000
#GOGOEND
4000, //66
#GOGOSTART
30
#GOGOEND
40
#GOGOSTART
3041,
101101
#GOGOEND
00, //68
#GOGOSTART
3
#GOGOEND
4
#GOGOSTART
34,
10210121, //70
1010200011102000,
1010200011102000,
2220222020002010,
10211000,
500000000000000000000008000000000000400000000000,
500000000000000000000008000000000000400000000000,
500000000000000000000008000000000000400000000000,
500000000000000008000000400000000000400000000000, //78
1111
#GOGOEND
1000
#GOGOSTART
30000000,
1111
#GOGOEND
1000
#GOGOSTART
3000
#GOGOEND
0000, //80
#GOGOSTART
40111111,
33,
#SCROLL 2
6,
000000000000000000000000000000000008000000000000, //84
#SCROLL 1
0
#GOGOEND
3,
#BARLINEOFF
0,
0000001110000000,
0, //88
#END

COURSE:Hard
LEVEL:5
BALLOON:14
SCOREINIT:680,3830
SCOREDIFF:200
#START
11,
11,
22,
2,
22,
2, //6
2,
2001,
1111,
10011001,
1,
33,
9000000000000009,
0800, //14
6
#GOGOSTART
0
#GOGOEND
0
#GOGOSTART
0, //15
#GOGOEND
000000000000
#GOGOSTART
000000000000
#GOGOEND
000000000008
#GOGOSTART
000000000000, //16
#GOGOEND
0
#GOGOSTART
3
#GOGOEND
0
#GOGOSTART
3, //17
#GOGOEND
0
#GOGOSTART
3
#GOGOEND
0
#GOGOSTART
3, //18
#GOGOEND
0
#GOGOSTART
3
#GOGOEND
0
#GOGOSTART
3, //19
#GOGOEND
0
#GOGOSTART
3
#GOGOEND
0
#GOGOSTART
3, //20
#GOGOEND
0
#GOGOSTART
3
#GOGOEND
0
#GOGOSTART
3, //21
#GOGOEND
33
#GOGOSTART
00
#GOGOEND
33
#GOGOSTART
00, //22
#GOGOEND
10201120,
10201120,
10201120, //25
#GOGOSTART
500000000000000000000000000000000008000000000000, //26
#GOGOEND
10201120,
10201120,
10201120,
1144,
10201120,
10201120,
10201120,
#GOGOSTART
500000000000000000000000000000000008000000000000, //34
#GOGOEND
10201120,
1144,
33,
3333,
500000000000000000000008000000000000400000000000,
500000000000000000000008000000000000400000000000,
500000000000000000000008000000000000400000000000,
500000000000000000000008000000000000400000000000, //42
500000000000000000000008000000000000400000000000,
500000000000000000000008000000000000400000000000,
500000000000000000000008000000000000400000000000,
#GOGOSTART
3
#GOGOEND
0
#GOGOSTART
3
#GOGOEND
0, //46
11401140,
11401140,
11401140,
11401140,
11110111,
01110111,
1313,
1313, //54
11111111,
#GOGOSTART
600000000000000000000000000008000000000000000000,
#GOGOEND
34,
34, //58
#GOGOSTART
30
#GOGOEND
40
#GOGOSTART
3041,
101101
#GOGOEND
00, //60
#GOGOSTART
3
#GOGOEND
4
#GOGOSTART
34,
10110101, //62
10201120,
10201120,
1111,
114
#GOGOEND
4, //66
#GOGOSTART
30
#GOGOEND
40
#GOGOSTART
3041,
101101
#GOGOEND
00, //68
#GOGOSTART
3
#GOGOEND
4
#GOGOSTART
34,
10110101, //70
10201120,
10201120,
20202022,
20011000,
500000000000000000000008000000000000400000000000,
500000000000000000000008000000000000400000000000,
500000000000000000000008000000000000400000000000,
500000000000000008000000400000000000400000000000, //78
1110
#GOGOEND
0000
#GOGOSTART
30000000,
1110
#GOGOEND
0000
#GOGOSTART
3000
#GOGOEND
0000, //80
#SCROLL 2
#GOGOSTART
4,
#SCROLL 1
33,
6,
000000000000000000000000000000000008000000000000, //84
0
#GOGOEND
3,
#BARLINEOFF
0,
0,
0, //88
#END

COURSE:Normal
LEVEL:4
BALLOON:14
SCOREINIT:780,7050
SCOREDIFF:310
#START
11,
11,
2,
2,
2,
2, //6
2,
2,
11,
11,
1,
33,
9000000000000009,
0800, //14
6
#GOGOSTART
0
#GOGOEND
0
#GOGOSTART
0, //15
#GOGOEND
000000000000
#GOGOSTART
000000000000
#GOGOEND
000000000008
#GOGOSTART
000000000000, //16
#GOGOEND
0
#GOGOSTART
3
#GOGOEND
0
#GOGOSTART
3, //17
#GOGOEND
0
#GOGOSTART
3
#GOGOEND
0
#GOGOSTART
3, //18
#GOGOEND
0
#GOGOSTART
3
#GOGOEND
0
#GOGOSTART
3, //19
#GOGOEND
0
#GOGOSTART
3
#GOGOEND
0
#GOGOSTART
3, //20
#GOGOEND
0
#GOGOSTART
3
#GOGOEND
0
#GOGOSTART
3, //21
#GOGOEND
0
#GOGOSTART
3
#GOGOEND
0
#GOGOSTART
3, //22
#GOGOEND
0202,
0202,
0202,
#GOGOSTART
500000000000000000000000000000000008000000000000, //26
#GOGOEND
0202,
0202,
0202,
0244,
0101,
0111,
0101,
#GOGOSTART
500000000000000000000000000000000008000000000000, //34
#GOGOEND
02,
2044,
33,
3333,
500000000000000000000008000000000000400000000000,
500000000000000000000008000000000000400000000000,
500000000000000000000008000000000000400000000000,
500000000000000000000008000000000000400000000000, //42
500000000000000000000008000000000000400000000000,
500000000000000000000008000000000000400000000000,
500000000000000000000008000000000000400000000000,
#GOGOSTART
3
#GOGOEND
0
#GOGOSTART
3
#GOGOEND
0, //46
0404,
0303,
0404,
0303,
0404,
0404,
0303,
0303, //54
0303,
#GOGOSTART
600000000000000000000000000008000000000000000000,
#GOGOEND
34,
34, //58
#GOGOSTART
3
#GOGOEND
0
#GOGOSTART
30,
111
#GOGOEND
0, //60
#GOGOSTART
3
#GOGOEND
0
#GOGOSTART
30,
1110, //62
0101,
0101,
0101,
014
#GOGOEND
4, //66
#GOGOSTART
3
#GOGOEND
0
#GOGOSTART
30,
111
#GOGOEND
0, //68
#GOGOSTART
3
#GOGOEND
0
#GOGOSTART
30,
1110, //70
0101,
0101,
0101,
0101,
500000000000000000000008000000000000400000000000,
500000000000000000000008000000000000400000000000,
500000000000000000000008000000000000400000000000,
500000000000000008000000400000000000400000000000, //78
0
#GOGOEND
0
#GOGOSTART
30,
0
#GOGOEND
0
#GOGOSTART
3
#GOGOEND
0, //80
#GOGOSTART
4,
33,
6,
000000000000000000000000000000000008000000000000, //84
0
#GOGOEND
3,
#BARLINEOFF
0,
0,
0, //88
#END

COURSE:Easy
LEVEL:3
BALLOON:8
SCOREINIT:550,8460
SCOREDIFF:233
#START
11,
11,
2,
2,
2,
2, //6
2,
2,
1,
1,
1,
33,
9000000000000009,
0800, //14
6
#GOGOSTART
0
#GOGOEND
0
#GOGOSTART
0, //15
#GOGOEND
000000000000
#GOGOSTART
000000000000
#GOGOEND
000000000008
#GOGOSTART
000000000000, //16
#GOGOEND
0
#GOGOSTART
3
#GOGOEND
0
#GOGOSTART
3, //17
#GOGOEND
0
#GOGOSTART
3
#GOGOEND
0
#GOGOSTART
3, //18
#GOGOEND
0
#GOGOSTART
3
#GOGOEND
0
#GOGOSTART
3, //19
#GOGOEND
0
#GOGOSTART
3
#GOGOEND
0
#GOGOSTART
3, //20
#GOGOEND
0
#GOGOSTART
3
#GOGOEND
0
#GOGOSTART
3, //21
#GOGOEND
0
#GOGOSTART
3
#GOGOEND
0
#GOGOSTART
3, //22
#GOGOEND
0002,
0002,
0002,
#GOGOSTART
500000000000000000000000000000000008000000000000, //26
#GOGOEND
0002,
0002,
0002,
0022,
0101,
0101,
0101,
#GOGOSTART
500000000000000000000000000000000008000000000000, //34
#GOGOEND
02,
2044,
33,
3333,
500000000000000000000008000000000000400000000000,
500000000000000000000008000000000000400000000000,
500000000000000000000008000000000000400000000000,
500000000000000000000008000000000000400000000000, //42
500000000000000000000008000000000000400000000000,
500000000000000000000008000000000000400000000000,
500000000000000000000008000000000000400000000000,
#GOGOSTART
3
#GOGOEND
0
#GOGOSTART
3
#GOGOEND
0, //46
0404,
0404,
0404,
0404,
0303,
0303,
0303,
0303, //54
0303,
#GOGOSTART
600000000000000000000000000008000000000000000000,
#GOGOEND
34,
34, //58
#GOGOSTART
3
#GOGOEND
0
#GOGOSTART
30,
000
#GOGOEND
0, //60
#GOGOSTART
3
#GOGOEND
0
#GOGOSTART
30,
0, //62
0101,
0101,
0101,
004
#GOGOEND
4, //66
#GOGOSTART
3
#GOGOEND
0
#GOGOSTART
30,
000
#GOGOEND
0, //68
#GOGOSTART
3
#GOGOEND
0
#GOGOSTART
30,
0, //70
0101,
0101,
0101,
0101,
500000000000000000000008000000000000400000000000,
500000000000000000000008000000000000400000000000,
500000000000000000000008000000000000400000000000,
500000000000000008000000400000000000400000000000, //78
0
#GOGOEND
0
#GOGOSTART
30,
0
#GOGOEND
0
#GOGOSTART
3
#GOGOEND
0, //80
#GOGOSTART
4,
33,
6,
000000000000000000000000000000000008000000000000, //84
0
#GOGOEND
3,
#BARLINEOFF
0,
0,
0, //88
#END
