//TJADB Project
TITLE:Maseijin -Zeta Asterism-
TITLEJA:魔星陣 -ゼータ・アステリズム-
SUBTITLE:--Hisui feat. hiyama
SUBTITLEJA:翡翠 feat. hiyama
BPM:230
WAVE:Maseijin -Zeta Asterism-.ogg
OFFSET:-1.562
DEMOSTART:88.176

COURSE:Oni
LEVEL:9
BALLOON:40,16
SCOREINIT:540,1630
SCOREDIFF:140
#START
#MEASURE 5/4
#SCROLL 0.5
3,
3,
30000040000000000022,
2022020200,
3,
3,
10002010000022201000,
1011010202, //8
1012020202,
1012020202,
1012020202,
1021212121,
1012020202,
1012020202,
1012020201,
1021212121, //16
1012012102,
0021020201,
2012010101,
200211211211200,
1012012102,
0021020202,
2012012104,
000200200000200000201010201010, //24
#MEASURE 6/4
1,
#MEASURE 5/4
00012,
#MEASURE 6/4
1,
#MEASURE 5/4
20002020201010202220,
#MEASURE 6/4
100200200201,
#MEASURE 5/4
200000000200000000201010201010,
#MEASURE 6/4
202221202221,
#MEASURE 5/4
20002020201011112222,
#MEASURE 7/4
1,
0, //34
#GOGOSTART
1000100020002010002220001000,
1000100020002010002220201000,
1000100020002010002220001000,
1000100020002010002220200000,
11102112222110,
11102112222110,
2010102010100011102000111000,
21121101122111, //42
7,
000000000000000000000000000000000000000000000000000000000000000000000000080000000000,
1000100020002010002220101000,
1000100020002010002220201000,
11122112222112,
11122112222112,
21102112110211,
2000200022201010002020202020, //50
#GOGOEND
1,
#SCROLL 2
0000
#SCROLL 0.5
000,
20202022020202,
20202022020110,
10120201012020,
100000000000100000200000000000200000000000500000000000000000000000000008000000000000, //56
#GOGOSTART
1000201000001000201000222010,
1000201000001000201000222010,
1000100020202010001110202000,
2000200010101020001110111000,
1000201000001000201000222010,
1000201000001000201000222010,
1000100020202010001000112000,
1000100011200011201110111000, //64
1000201000001000201000222010,
1000201000001000201000222010,
1000100020202010001110202000,
2000200010101020001110111000,
12212212210211,
12212212210211,
10102221010221,
20201112020110, //72
#GOGOEND
#MEASURE 5/4
3004004000,
#MEASURE 6/4
300000000400000000201010201010201010,
#MEASURE 5/4
100000200100000200102020200000,
#MEASURE 6/4
102102204040,
#MEASURE 5/4
3,
#MEASURE 6/4
700000000000000000000000000000000000000000000000000000000008000000000000,
#BARLINEOFF
#SCROLL 1
02
#SCROLL 0.5
0, //79
#MEASURE 4/4
0,
0,
0,
0,
0,
0, //85
#END

COURSE:Hard
LEVEL:7
BALLOON:32,13
SCOREINIT:660,2540
SCOREDIFF:185
#START
#MEASURE 5/4
#SCROLL 0.5
3,
3,
3004000000,
2022020200,
3,
3,
3004000000,
1011010300, //8
1011020200,
1011020200,
1011020200,
12222,
1011020200,
1011020200,
1011020200,
12222, //16
1011002002,
0020020200,
1011020200,
11220,
1011002002,
0020020200,
1002002004,
02222, //24
#MEASURE 6/4
1,
#MEASURE 5/4
00012,
#MEASURE 6/4
1,
#MEASURE 5/4
2022203000,
#MEASURE 6/4
1222,
#MEASURE 5/4
2002002020,
#MEASURE 6/4
202220202220,
#MEASURE 5/4
2022201110,
#MEASURE 7/4
3,
0, //34
#GOGOSTART
10102001020000,
10102001020200,
10102001020000,
10102001020200,
11102001020100,
11102001020200,
11102001010200,
20220201010300, //42
7,
000000000000000000000000000000000000000000000000000000000000000000000000080000000000,
10102001020000,
10102001022220,
11102001020100,
11102001020100,
22201002220200,
20202211022220, //50
#GOGOEND
1,
#SCROLL 2
0000
#SCROLL 0.5
000,
20202002020200,
20202002020200,
10110101002020,
100000000000100000100000000000100000000000500000000000000000000000000008000000000000, //56
#GOGOSTART
10010010010220,
10010010010220,
10102001010200,
20201002020100,
10010010010220,
10010010010220,
10102001010200,
500000000000000000000000000000000000000000000000000000000000000008000000000000000000, //64
10010010010220,
10010010010220,
10102001010200,
20201002020100,
10210210210210,
10210210210210,
10102001010200,
20201002020100, //72
#GOGOEND
#MEASURE 5/4
3004004000,
#MEASURE 6/4
300400202020,
#MEASURE 5/4
3004004000,
#MEASURE 6/4
300400404040,
#MEASURE 5/4
3,
#MEASURE 6/4
700000000000000000000000000000000000000000000000000000000008000000000000,
#BARLINEOFF
#SCROLL 1
02
#SCROLL 0.5
0, //79
#MEASURE 4/4
0,
0,
0,
0,
0,
0, //85
#END

COURSE:Normal
LEVEL:7
BALLOON:24
SCOREINIT:820,3810
SCOREDIFF:265
#START
#MEASURE 5/4
#SCROLL 0.5
3,
3,
3003000000,
4,
3,
3,
3003000000,
4, //8
1002002002,
0020020000,
1001000000,
3,
1002002002,
0020020000,
1002002002,
01000, //16
1002002002,
0020020000,
1001000000,
3,
1002002002,
0020020000,
1001001001,
0, //24
#MEASURE 6/4
1,
#MEASURE 5/4
00011,
#MEASURE 6/4
1,
#MEASURE 5/4
00010,
#MEASURE 6/4
1,
#MEASURE 5/4
2,
#MEASURE 6/4
202200,
#MEASURE 5/4
20220,
#MEASURE 7/4
3,
0, //34
#GOGOSTART
10101001000000,
10101001000000,
10101001000000,
20202002000000,
10101001000000,
10101001000000,
10101001000000,
20202002000000, //42
7,
000000000000000000000000000000000000000000000000000000000000000000000000080000000000,
10101001000000,
10101001000000,
11101001000000,
22202002000000,
11101001000000,
22202002000000, //50
#GOGOEND
1,
#SCROLL 2
0000
#SCROLL 0.5
000,
20202002020200,
20202002020200,
10010101000000,
10010101000000, //56
#GOGOSTART
10010010010000,
10010010010000,
10101001010100,
20202002020200,
10010010010000,
10010010010000,
20202002020200,
500000000000000000000000000000000000000000000000000000000000000008000000000000000000, //64
10010010010000,
10010010010000,
10101001010100,
20202004040000,
10010010010000,
20020020020000,
10010010010000,
20020020020000, //72
#GOGOEND
#MEASURE 5/4
3003003000,
#MEASURE 6/4
4440,
#MEASURE 5/4
3003003000,
#MEASURE 6/4
400400404040,
#MEASURE 5/4
3,
#MEASURE 6/4
0,
#BARLINEOFF
020, //79
#MEASURE 4/4
0,
0,
0,
0,
0,
0, //85
#END

COURSE:Easy
LEVEL:5
BALLOON:18,16,16
SCOREINIT:680,5660
SCOREDIFF:248
#START
#MEASURE 5/4
#SCROLL 0.5
3,
3,
3003000000,
4,
3,
3,
3003000000,
4, //8
1001000000,
1001000000,
2002000000,
3,
1001000000,
1001000000,
2002002002,
02000, //16
1001000000,
1001000000,
2002000000,
3,
2002002002,
0020020000,
1001001001,
0, //24
#MEASURE 6/4
1,
#MEASURE 5/4
00011,
#MEASURE 6/4
1,
#MEASURE 5/4
00010,
#MEASURE 6/4
1,
#MEASURE 5/4
2,
#MEASURE 6/4
22,
#MEASURE 5/4
20020,
#MEASURE 7/4
1,
0, //34
#GOGOSTART
10001001000000,
10001001000000,
10001001000000,
10001001000000,
20002002000000,
20002002000000,
20002002000000,
20002002000000, //42
7,
000000000000000000000000000000000000000000000000000000000000000000000000080000000000,
10001001000000,
10001001000000,
20002002000000,
20002002000000,
20002002000000,
500000000000000000000000000000000000000000000000000008000000000000000000000000000000, //50
#GOGOEND
1,
#SCROLL 2
0000
#SCROLL 0.5
000,
20202002000000,
20202002000000,
10010101000000,
10010101000000, //56
#GOGOSTART
10010010000000,
10010010000000,
7,
0000000000000000080000000000,
10010010000000,
10010010000000,
20020020000000,
500000000000000000000000000000000000000000000000000000000000000008000000000000000000, //64
10010010000000,
10010010000000,
7,
0000000000000000080000000000,
10010010000000,
20020020000000,
10010010000000,
20020020000000, //72
#GOGOEND
#MEASURE 5/4
3,
#MEASURE 6/4
4,
#MEASURE 5/4
3,
#MEASURE 6/4
400444,
#MEASURE 5/4
0,
#MEASURE 6/4
0,
#BARLINEOFF
020, //79
#MEASURE 4/4
0,
0,
0,
0,
0,
0, //85
#END
