//TJADB Project
TITLE:*Sekai o Sukuu,
Bokura no Ohanashi.
TITLEJA:*せかいをすくう、ぼくらのおはなし。
SUBTITLE:--AAAA
SUBTITLEJA:ああああ
BPM:175
WAVE:Sekai o Sukuu Bokura no Ohanashi.ogg
OFFSET:-1.000
DEMOSTART:86.862

COURSE:Oni
LEVEL:10
BALLOON:25
SCOREINIT:340,910
SCOREDIFF:78
#START
#MEASURE 3/4
122,
#BPMCHANGE 170
122,
#BPMCHANGE 160
121,
#BPMCHANGE 150
5,
000000000000000000000000000000000008,
#MEASURE 4/4
#BPMCHANGE 200
0000000011112212, //6
10220220,
12202020,
10220220,
1020200020001111,
2000102210102020,
1011201120122010,
2000102210001011,
1010201020221111,
22220222,
0020002000121122,
222111222111,
201020101010202220101020,
122111122111,
5,
000000000000000000000000000000000000000008000000,
222200000000000000000000,
0, //23
2022202020202022,
2020202220222020,
2022202020202022,
2020202222202022,
2022202020202022,
2020202220222020,
2022202020202022,
1000000022111212,
1011202011201122,
1022102020112020,
1022102210102020,
1011202011101122,
1000102210201020,
1022102210211120,
3000102210001111,
2222112211221212,
222111222111,
202020202020100020001000200010001000200100100100, //41
100222100122,
100020100022100020101010,
100222100122,
100020100011200000202020,
122102100221,
200000201010200010200022,
100010200021200010200010,
200020002000100010002000200100100100200100100100,
1020112211212020,
1022221122221122,
1011202010221020,
1021101010002211,
1000101121212040,
000000202020100000300000000000400000000000200200,
1111202000102011,
#BPMCHANGE 198
1022103000222211, //57
#MEASURE 3/4
#BPMCHANGE 200
202,
200000101010200200,
211,
200000000000100010001000200000200200,
202,
200000101010200200,
122,
100000000000100010001000100000100100,
201,
200000102020100200,
121,
#BPMCHANGE 202.77
200000201010200200,
#MEASURE 4/4
#BPMCHANGE 200
100000000000100010001000100000000000100000100100,
222111100100,
100000000000100010001000100000000000100000200200,
222111221111,
2,
200020002000200020002000202020202020100000100100, //75
#GOGOSTART
2022101011121011,
2022101011221011,
1011202030304040,
3002102210201122,
1002100110012002,
2001202220102010,
1020112120221020,
100100100100100100200200500000000008000000100100,
#GOGOEND
2000002020000022,
#GOGOSTART
1111102021212011,
1011202030304040,
3002102210201122,
122111122111,
222112102201,
202101222111,
#BPMCHANGE 199.46
200020002000200020002000500000000008000000100000, //91
#GOGOEND
#BPMCHANGE 200
7,
0,
8,
0,
300000202020100100200200,
100111200222,
100111100111,
200111222111,
#BPMCHANGE 200.43
2000000000000022, //100
#BPMCHANGE 200
2000002020000022,
2000002020000011,
#GOGOSTART
1011202121201120,
1111112122221022,
1002100110012002,
2001202220102010,
3020112120221020,
100100100100100100200200102020200200100200200200,
#GOGOEND
1000002020000011,
#GOGOSTART
100200200200100100200100202010100100200100200100,
1011202030304040,
3022112120101122,
1021112122112211,
200000101010200000101010200000202020100100100100, //114
200020002000100000100200100010001000200020002000,
100020002000100020002000100020001000100100200100,
200020002000100000200000200200002000100020001000,
30002002,
302111202111,
202111202111,
222010201010222010201010,
221010202010212121212121,
0300,
000000000000112211221122,
#GOGOEND
222200000000000000000000,
0,
0, //127
#END

COURSE:Hard
LEVEL:8
BALLOON:10
SCOREINIT:420,1480
SCOREDIFF:100
#START
#MEASURE 3/4
122,
#BPMCHANGE 170
122,
#BPMCHANGE 160
122,
#BPMCHANGE 150
5,
000000000000000000000000000000000008,
#MEASURE 4/4
#BPMCHANGE 200
00001122, //6
10020020,
22002020,
10020020,
22002011,
10201122,
1222,
1000001110000000,
11102210,
20220222,
0020002000222020,
200101100101,
100101101100,
100101100101,
5,
000000000000000000000000000000000000000008000000,
2,
0, //23
20022222,
0222,
20250000,
000000000000000000000008000000000000000000200200,
20022222,
0222,
200000000000200000500000000000000000000008000000,
1000000022202220,
1010201000201110,
1020102000111020,
1000102011102020,
1010202000101110,
10221122,
1011101110111020,
3000002220001010,
2220201110102220,
222200222200,
2222200010001111, //41
100111100222,
200102100101,
100111100222,
200101200200,
222200100121,
200212100202,
100202200200,
200020002000200000002000200000000000100100100100,
1000101011102020,
0022201022201020,
1010202000111020,
0022201000001111,
1000101022202040,
0011103000400020,
11220121,
#BPMCHANGE 198
2011103000222020, //57
#MEASURE 3/4
#BPMCHANGE 200
202,
200022,
211,
200020000022,
202,
200022,
222,
100010000022,
201,
211,
101,
#BPMCHANGE 202.77
212,
#MEASURE 4/4
#BPMCHANGE 200
100111100101,
200101100100,
100111100102,
202201101101,
2,
0000000000000011, //75
#GOGOSTART
1000102220102011,
1000102220201011,
10201122,
3000102010202011,
1000200110002001,
1000102220101010,
1000111110202020,
1000201110000011,
#GOGOEND
1000000000000011,
#GOGOSTART
1000102220201011,
10201122,
3000102010202011,
100222200112,
200112202201,
1222,
#BPMCHANGE 199.46
10022001, //91
#GOGOEND
#BPMCHANGE 200
1,
0,
0,
0,
10022111,
1122,
10021001,
7,
#BPMCHANGE 200.43
8, //100
#BPMCHANGE 200
2,
2000000000000011,
#GOGOSTART
10201122,
3000102220001011,
1002200110022001,
1000201110202010,
1000111110102020,
1011102010001011,
#GOGOEND
1000002020000011,
#GOGOSTART
1001102220102011,
1010202011102220,
1000102220102011,
1000111120102020,
1001200120001111, //114
100000000000100000200200100000000000100000002000,
200000001000100010001000100000000000100100100100,
200000000000100000200200200000000000100010001000,
10002001,
100111100112,
200222200111,
5,
000000000000000000000000000000000000000000000008,
0300,
0,
#GOGOEND
2,
0,
0, //127
#END

COURSE:Normal
LEVEL:6
BALLOON:8
SCOREINIT:510,2480
SCOREDIFF:133
#START
#MEASURE 3/4
1,
#BPMCHANGE 170
1,
#BPMCHANGE 160
1,
#BPMCHANGE 150
5,
000000000000000000000000000000000008,
#MEASURE 4/4
#BPMCHANGE 200
0, //6
3,
22,
1,
2021,
10001022,
0222,
10015000,
000000000000000000000000000000000008000000000000,
20020002,
02020000,
11,
1011,
11,
5,
000000000000000000000000000000000008000000000000,
2,
0, //23
20022022,
0222,
20050000,
000000000000000000000008000000000000000000200000,
20022022,
0222,
200000000000000000500000000000000008000000000000,
10002220,
10110110,
10220110,
10101110,
10220011,
10201022,
0111,
30022000,
22201110,
22,
22201011, //41
1112,
11,
1112,
22,
2111,
2122,
11,
20202011,
10101102,
02202220,
10220112,
02210011,
10102204,
03030401,
10220111,
#BPMCHANGE 198
02030000, //57
#MEASURE 3/4
#BPMCHANGE 200
2,
202,
2,
2,
2,
202,
2,
200002,
201,
111,
101,
#BPMCHANGE 202.77
111,
#MEASURE 4/4
#BPMCHANGE 200
1011,
21,
1011,
21,
0,
00000001, //75
#GOGOSTART
10022011,
10022011,
10201120,
30121001,
1212,
10102210,
10111110,
10021001,
#GOGOEND
10000002,
#GOGOSTART
10022011,
10201120,
30121001,
3221,
4122,
3222,
#BPMCHANGE 199.46
10022001, //91
#GOGOEND
#BPMCHANGE 200
1,
0,
0,
0,
10022011,
1122,
10011001,
7,
#BPMCHANGE 200.43
8, //100
#BPMCHANGE 200
2,
20000001,
#GOGOSTART
10201120,
30122001,
1212,
10211020,
10111120,
10121011,
#GOGOEND
10022001,
#GOGOSTART
10122011,
10201122,
10122011,
10112022,
10202011, //114
10121010,
20101011,
20122010,
30002001,
3111,
4222,
5,
000000000000000000000000000000000000000000000008,
0300,
0,
#GOGOEND
2,
0,
0, //127
#END

COURSE:Easy
LEVEL:4
BALLOON:6
SCOREINIT:610,5470
SCOREDIFF:210
#START
#MEASURE 3/4
0,
#BPMCHANGE 170
0,
#BPMCHANGE 160
0,
#BPMCHANGE 150
5,
000000000000000000000000000000000008,
#MEASURE 4/4
#BPMCHANGE 200
0, //6
3,
1,
1,
1,
1,
1,
5,
000000000000000000000000000000000008000000000000,
2,
0,
1,
1,
1,
5,
000000000000000000000000000000000008000000000000,
2,
0, //23
2,
0,
2,
0,
2,
0,
2,
1,
10010000,
10010000,
11,
1,
10000001,
01,
5,
000000000000000000000000000008000000000000000000,
2,
2, //41
11,
1,
11,
2,
2,
22,
11,
2,
1110,
22,
1110,
21,
10101004,
00030300,
10010001,
#BPMCHANGE 198
00030000, //57
#MEASURE 3/4
#BPMCHANGE 200
2,
0,
2,
0,
2,
0,
2,
0,
2,
1,
2,
#BPMCHANGE 202.77
1,
#MEASURE 4/4
#BPMCHANGE 200
11,
1,
11,
1,
0,
0, //75
#GOGOSTART
1110,
2220,
1111,
33,
11,
1011,
1011,
11,
#GOGOEND
1,
#GOGOSTART
2220,
1111,
33,
11,
12,
1,
#BPMCHANGE 199.46
12, //91
#GOGOEND
#BPMCHANGE 200
1,
0,
0,
0,
1,
11,
1,
7,
#BPMCHANGE 200.43
8, //100
#BPMCHANGE 200
2,
2,
#GOGOSTART
1111,
34,
11,
1011,
1011,
11,
#GOGOEND
1,
#GOGOSTART
12,
1110,
34,
1110,
2220, //114
11,
1110,
22,
12,
11,
22,
5,
000000000000000000000000000000000000000000000008,
0300,
0,
#GOGOEND
2,
0,
0, //127
#END
