//TJADB Project
TITLE:D’s Adventure Note
TITLEJA:D's Adventure Note
SUBTITLE:--Dan@Yomii
SUBTITLEJA:暖@よみぃ
BPM:174.54
WAVE:D’s Adventure Note.ogg
OFFSET:-1.878
DEMOSTART:34.974

COURSE:Oni
LEVEL:10
SCOREINIT:350
SCOREDIFF:90
#START
2,
#BPMCHANGE 173.49
2000000000020000,
#BPMCHANGE 173.85
2,
#BPMCHANGE 174.26
2000000000020000,
#BPMCHANGE 174.22
22,
22,
#BPMCHANGE 174.31
2002000020020000,
#BPMCHANGE 174
4000000030030030,//8
#GOGOSTART
3021012021012021,
0120210122112122,
1120210120210122,
1120210120210122,
1120201120201202,
1021002010201220,
1021012011202100,
#BPMCHANGE 174.35
200000200200101010100100200100101010100000200000,//16
#BPMCHANGE 174
#GOGOEND
1021012010210120,
1120201120212121,
1120201120201121,
1012012210210212,
1120200120200120,
1121201112212211,
1021021010210211,
1202020201112211,//25
#GOGOSTART
1011202012011020,
1011202012011020,
1011202012011021,
1022112110210121,
1001002002011020,
1011012011020020,
1011012011020121,
100000100200000200000100200200200100101010101010,
1011202012021020,
1011202012021020,
1011202012021021,
1022112110210122,
1021002002021020,
1021002002021020,
1021012010210020,
100000000200000000200000100100000200101010101010,//40
#BPMCHANGE 172.89
#GOGOEND
1020000020020020,
#BPMCHANGE 174
2002002022000020,
2002002020020020,
2002002022022020,
2002002002022020,
2022020200202020,
2002022200202020,
2002022220020020,
#BPMCHANGE 175.12
#SCROLL 0.99
4,
#BPMCHANGE 174
#SCROLL 1
3003003040004000,//50
#GOGOSTART
3021012010210120,
1120210120210122,
1021012010210122,
1102011020020110,
1002001002011020,
1021020121012021,
2212021012021020,
1211121012211122,
1012021012021020,
1012021012021012,
1012002120210120,
2112112121121121,
1011201020210120,
1021012021020020,
1021012010201121,
1001002010102222,
1120102012020210,
1121102010210121,
1120102010210121,
1002001002021020,
1111201011210120,
2001002001012010,
1111201011210120,
1000102211221222,
1121102122120122,
1122102211211222,
1121211121211121,
100000200100000200100000100000000200101010100100,
1004001010040010,
100000000200100000100000100000200200101010100100,
1004001010040030,
300000000000200100100100100000100000101010101010,//82
#BPMCHANGE 173.13
#GOGOEND
2220220220220220,
#BPMCHANGE 174
2220220220220220,
2220220220220220,
2220222220220220,
2220220220220220,
2220220220220220,
2220220220220220,
2220220220220220,
#END

COURSE:Hard
LEVEL:8
SCOREINIT:400
SCOREDIFF:100
#START
2,
#BPMCHANGE 173.49
2000000000020000,
#BPMCHANGE 173.85
2,
#BPMCHANGE 174.26
2000000000020000,
#BPMCHANGE 174.22
22,
22,
#BPMCHANGE 174.31
2002000020020000,
#BPMCHANGE 174
4000000030030030,//8
#GOGOSTART
3011022011022011,
0220110110220220,
1110220220110110,
1110220220110110,
1110201110201100,
2002002010101100,
2011002011102200,
#BPMCHANGE 174.35
1,//16
#BPMCHANGE 174
#GOGOEND
1022022010220220,
1110200011102220,
1110201110201110,
2022011020110220,
2220100220100220,
1022200011102220,
1022022010220220,
2202020200000000,//25
#GOGOSTART
1011101022001020,
1011101022001020,
1011101022001011,
1022202220110110,
1002001002011020,
1022022022010020,
1011011002020110,
200000100100000200000200500000000000000008000000,
1011101022001020,
1011101022001020,
1011101022001011,
1022202220110110,
1022002002001020,
1022002002001020,
1022022010220020,
1002002010000000,//40
#BPMCHANGE 172.89
#GOGOEND
12002000,
#BPMCHANGE 174
20002002,
22,
20002002,
20000002,
20000222,
20000222,
2,
#BPMCHANGE 175.12
#SCROLL 0.99
4,
#BPMCHANGE 174
#SCROLL 1
3003003040004000,//50
#GOGOSTART
3022022010220220,
1110220110220110,
1022022010220220,
1102011020020000,
1002001002001020,
1022010222011022,
2011022011022010,
100000200200000200200000500000000000000008000000,
1022022011011020,
1022022011011020,
1022001110220020,
1002002010020020,
1000000010020020,
1002002011020020,
1022001020001110,
1002002010002000,
1020102011020110,
1120102010220220,
1120102010220220,
1001001001002020,
1110200011010020,
1001001001002020,
1110200011010020,
1000002210000000,
1110200011020110,
1110200011020110,
1110200010201111,
1001001010020010,
1004001010040010,
1002001010000011,
1004001010040030,
3,//82
#BPMCHANGE 173.13
#GOGOEND
2220220020220220,
#BPMCHANGE 174
2220220020220220,
2220220020220220,
2220222020020020,
2220220020220220,
2220220020220220,
2220220020220220,
2220220020220220,
,
,
#END

COURSE:Normal
LEVEL:7
SCOREINIT:550
SCOREDIFF:158
#START
2,
#BPMCHANGE 173.49
2000000000020000,
#BPMCHANGE 173.85
2,
#BPMCHANGE 174.26
2000000000020000,
#BPMCHANGE 174.22
22,
22,
#BPMCHANGE 174.31
2002000020020000,
#BPMCHANGE 174
4,//8
#GOGOSTART
1001001010102000,
1001001010202000,
1001001010102000,
1001001010202000,
11201200,
1001001010102000,
1001002010102000,
#BPMCHANGE 174.35
1,//16
#BPMCHANGE 174
#GOGOEND
12011201,
12201020,
11201210,
12011220,
12201201,
12201210,
12011201,
500000000000000000000008000000000000000000000000,//25
#GOGOSTART
30011022,
10011022,
10011022,
10011220,
1001002000002000,
1001002000202000,
1001002000102000,
1001002010102000,
30011022,
10011022,
10011022,
10011220,
1001002000102000,
1001002000102000,
1001001010202000,
1001002010000000,//40
#BPMCHANGE 172.89
#GOGOEND
4,
#BPMCHANGE 174
,
,
,
2,
2,
22,
22,
#BPMCHANGE 175.12
#SCROLL 0.99
4,
#BPMCHANGE 174
#SCROLL 1
500000000000000000000000000000000008000000000000,//50
#GOGOSTART
1001001010102000,
1001001010202000,
1001001010102000,
1002001010020000,
1001001001002020,
500000000000000000000008000000000000000000000000,
1001001010002000,
500000000000000000000008000000000000000000000000,
1001002010102000,
1001002010102000,
1002001010020010,
1002001010020010,
1000000010010020,
1001002010002000,
1001002010002000,
1001002010002000,
1000100010010020,
1010200010010020,
1010200010010020,
1001001001002020,
1010100010010020,
1001001001002020,
1010100010010020,
10022000,
1010200010010020,
1010200010010020,
11201210,
1001002010010020,
1001000010010000,
1001000040000000,
1001000010010000,
3,//82
#BPMCHANGE 173.13
#GOGOEND
4,
#BPMCHANGE 174
22,
02,
22,
02,
22,
22,
20000002,
,
,
#END

COURSE:Easy
LEVEL:5
SCOREINIT:380
SCOREDIFF:113
#START
2,
#BPMCHANGE 173.49
2,
#BPMCHANGE 173.85
2,
#BPMCHANGE 174.26
2,
#BPMCHANGE 174.22
22,
22,
#BPMCHANGE 174.31
22,
#BPMCHANGE 174
4,//8
#GOGOSTART
10101110,
1122,
10101110,
1122,
11102200,
1122,
10102220,
#BPMCHANGE 174.35
1,//16
#BPMCHANGE 174
#GOGOEND
11011020,
1210,
11011020,
1210,
11101101,
10201110,
10011001,
500000000000000000000008000000000000000000000000,//25
#GOGOSTART
30011011,
10011011,
10011011,
10011020,
10100220,
10100220,
10100220,
10011020,
30011011,
10011011,
10011011,
10011020,
10100220,
10100220,
10011020,
10011000,//40
#BPMCHANGE 172.89
#GOGOEND
4,
#BPMCHANGE 174
,
,
,
2,
2,
22,
22,
#BPMCHANGE 175.12
#SCROLL 0.99
4,
#BPMCHANGE 174
#SCROLL 1
500000000000000000000000000000000008000000000000,//50
#GOGOSTART
11101020,
11102020,
11101020,
11102000,
10011020,
500000000000000000000008000000000000000000000000,
10011020,
500000000000000000000008000000000000000000000000,
11102020,
11102020,
11102020,
500000000000000000000000000008000000000000000000,
11202000,
10011020,
11202000,
10011020,
1212,
11102020,
11102020,
500000000000000000000000000008000000000000000000,
11201020,
500000000000000000000000000008000000000000000000,
11201020,
10022000,
11201020,
11201020,
11201020,
500000000000000000000000000008000000000000000000,
33,
34,
33,
3,//82
#BPMCHANGE 173.13
#GOGOEND
4,
#BPMCHANGE 174
22,
02,
22,
02,
22,
22,
20000002,
,
,
#END
