//TJADB Project
TITLE:Megamina Sekai Ⅲ
TITLEJA:女神な世界 Ⅲ
SUBTITLE:--Hisui & GIW feat. Yua Miyuki×Erika Koyama
SUBTITLEJA:翡翠&祇羽 feat.深雪ゆあ×湖山えりか
BPM:162
WAVE:Megamina Sekai III.ogg
OFFSET:-0.642
DEMOSTART:36.169 //shinuchi:
7000/5320/3250/1310

COURSE:Oni
LEVEL:8
BALLOON:40,40
SCOREINIT:440,1460
SCOREDIFF:108
#START
#MEASURE 3/4
222000200000200000,
0,
222000200000200000,
0,
222000200000200000,
0,
222000200000200100,
111122, //8
101010000000100000100100200000000000,
212000,
101010000000100000100200100100100000,
200001100200000100,
111000200000100100,
402301,
500000000000000000000000000000000008,
011111, //16
300000221020,
112022,
100000221111,
102010112020,
100000222020,
301110400110,
301011221020,
122210202000, //24
300000221000,
101120002022,
100000221022,
121020102020,
100020211020,
104011204022,
100000000000100000101010100100100000,
233333, //32
301110200010,
101110200010,
101110200010,
100020222020,
111010200010,
111010200010,
111010202020,
102211221111, //40
101110201120,
101110201120,
101110201120,
100000202020200000200200100200200200,
101110201020,
301110402010,
302011202011,
222222111111, //48
200022,
302302,
7,
0,
0,
8, //54
402,
020,
402,
020,
402,
222,
402,
222, //62
400022,
202202,
100000001022,
100022222222,
202,
100020002022,
202,
221220, //70
200000202021,
100120300120,
600000000000000000000000000000000008,
033333, //74
100120,
100200100111200000,
100000212010,
112210102211,
100000200100200111,
100011200010,
300100000200100110,
221122221122, //82
#GOGOSTART
110000100220000200,
101010100100200000200000100000200000,
102012020102,
101010000000000000100200200200200200,
102120112212,
102212010205,
000000000008000000200200200000100100,
140400, //90
#GOGOEND
301201,
101110201030,
000000100200100222,
200200100110000300,
001201,
301110202030,
001223,
000300003000, //98
#GOGOSTART
301110200020,
101120102010,
101110200010,
100100200110200000,
101110200010,
100000200200100000100000200000202020,
101110212120,
121210303030, //106
111020112010,
211020112020,
111020112020,
102211102121,
200020112020,
300000101010100100200000200000100000,
312233,
200000202020200200100000200100100000, //114
301022104000,
301421,
302020212020,
121212121212,
1,
301301, //120
#GOGOEND
7,
0,
0,
8,
402,
020,
402,
020,
0, //129
#END

COURSE:Hard
LEVEL:4
BALLOON:14,33,33
SCOREINIT:760,3570
SCOREDIFF:205
#START
#MEASURE 3/4
222,
0,
222,
0,
222,
0,
222,
3, //8
111,
020,
111,
020,
111,
11,
500000000000000000000000000000000008,
0, //16
101,
112,
101,
122,
100011,
101101,
7,
080, //24
101,
112,
101,
122,
100111,
101101,
500000000000000000000000000000000008,
0, //32
11,
12,
101101,
2,
11,
12,
100222,
2, //40
111100,
111200,
111101,
200111,
100011,
101101,
500000000000000000000000000000000008,
000111, //48
300011,
301301,
7,
0,
0,
8, //54
202,
020,
202,
020,
202,
220,
202,
220, //62
200022,
202202,
100001,
1,
202,
222,
202,
222, //70
200222,
402402,
600000000000000000000000000000000008,
0,
100120,
112,
100120,
101120,
122,
101101,
301,
222220, //82
#GOGOSTART
101101,
112,
101110,
102,
101110,
100010100005,
0,
000008000000000000000000000000000000, //90
#GOGOEND
11,
100201,
001122,
000001,
01,
100201,
001113,
0, //98
#GOGOSTART
11,
12,
101101,
2,
11,
12,
100112,
2, //106
11,
12,
101101,
200111,
100011,
101101,
500000000000000000000000000000000008,
000111, //114
300011,
301301,
600000000000000000000000000000000008,
0,
3,
33, //120
#GOGOEND
7,
0,
0,
8,
402,
020,
402,
020,
0, //129
#END

COURSE:Normal
LEVEL:3
BALLOON:8,20,20
SCOREINIT:880,6070
SCOREDIFF:290
#START
#MEASURE 3/4
0,
0,
0,
0,
0,
0,
0,
3, //8
111,
0,
111,
0,
111,
11,
500000000000000000000000000000000008,
0, //16
101,
110,
101,
120,
101,
11,
7,
080, //24
101,
110,
101,
120,
101,
11,
500000000000000000000000000000000008,
0, //32
11,
12,
11,
2,
11,
12,
100220,
2, //40
11,
12,
11,
2,
1,
11,
500000000000000000000000000000000008,
0, //48
3,
33,
7,
0,
0,
8, //54
2,
0,
2,
0,
202,
2,
202,
2, //62
2,
22,
1,
1,
202,
220,
202,
220, //70
2,
44,
600000000000000000000000000000000008,
0,
11,
110,
11,
110,
111,
11,
3,
2, //82
#GOGOSTART
11,
1,
111,
1,
111,
100000000005,
0,
000008000000000000000000000000000000, //90
#GOGOEND
11,
100001,
000002,
000001,
01,
100001,
000003,
0, //98
#GOGOSTART
11,
12,
11,
2,
11,
12,
100220,
2, //106
11,
12,
11,
2,
101,
11,
500000000000000000000000000000000008,
0, //114
303,
33,
600000000000000000000000000000000008,
0,
3,
33, //120
#GOGOEND
7,
0,
0,
8,
402,
020,
402,
020,
0, //129
#END

COURSE:Easy
LEVEL:3
BALLOON:7,22,6,16
SCOREINIT:790,8180
SCOREDIFF:290
#START
#MEASURE 3/4
0,
0,
0,
0,
0,
0,
0,
0, //8
101,
0,
101,
0,
1,
1,
500000000000000000000000000000000008,
0, //16
101,
1,
101,
1,
101,
11,
7,
080, //24
101,
1,
101,
1,
101,
11,
500000000000000000000000000000000008,
0, //32
11,
1,
11,
2,
11,
1,
1,
2, //40
11,
1,
11,
2,
1,
11,
500000000000000000000000000000000008,
0, //48
3,
33,
7,
0,
0,
0, //54
8,
0,
0,
0,
2,
0,
2,
0, //62
2,
2,
1,
0,
2,
2,
2,
2, //70
2,
44,
600000000000000000000000000000000008,
0,
11,
1,
11,
1,
110,
1,
3,
0, //82
#GOGOSTART
11,
1,
110,
1,
110,
100000000005,
0,
000008000000000000000000000000000000, //90
#GOGOEND
11,
100007,
0,
800001,
01,
100001,
000003,
0, //98
#GOGOSTART
11,
1,
11,
2,
11,
1,
12,
2, //106
11,
1,
11,
2,
1,
11,
500000000000000000000000000000000008,
0, //114
3,
33,
600000000000000000000000000000000008,
0,
3,
33, //120
#GOGOEND
7,
0,
0,
8,
402,
020,
402,
020,
0, //129
#END
