//TJADB Project
TITLE:Music Revolver
TITLEJA:ミュージック・リボルバー
SUBTITLE:--Tatsh a.k.a. Zeami/Music GunGun! 2
SUBTITLEJA:「ミュージックガンガン!2」より
BPM:168
WAVE:Music Revolver.ogg
OFFSET:-1.807
DEMOSTART:19.656

COURSE:Edit
LEVEL:10
BALLOON:4,9
SCOREINIT:440
SCOREDIFF:113
#START
#SCROLL 6
#MEASURE 16/4
3,
#MEASURE 4/4
#SCROLL 1
3000200000002000,
0000200000002000,
1000200000002000,
0000200000202000,
1000200010002020,
1000200010002020,
1111,
#MEASURE 6/4
100000005000000080000000,
#MEASURE 4/4
#GOGOSTART
1000200011102010,
1101201101102000,
1000200011102010,
1101201101102000,
1000200011102010,
1101201101102020,
1000200011102010,
1101201101102000,
#GOGOEND
41121121,
1020111022102010,
21121121,
1020111022102010,
4011102011102011,
1020111022102010,
2011102011102011,
2111211170000080,
3011221101012010,
1111201101112010,
1011221101012010,
1111201111104000,
3011221101012010,
1111201101112010,
1011221101012010,
101010101010100100100000400000400000400000400000,
3011221101012020,
1111201102112010,
1011221101012020,
1111201111104040,
3011221101012020,
1111201102112010,
1111221122112211,
2222112211221122,
1111221211112212,
101010100100200200100200101010100100200200100200,
1122121211221212,
101010100100101010100100101010101010101010101010,
1,
#MEASURE 6/4
,
#MEASURE 4/4
,
,
,
3,
3,
3333,
33333333,
6,
#MEASURE 6/4
8,
#MEASURE 4/4
#GOGOSTART
1120201202102010,
1220201102102010,
1120201202102010,
1022102010221110,
1120201202102010,
1220201102102010,
1120201202102010,
70000008,
1102011020011020,
1122112212212212,
1222121212221212,
1122112212212212,
1102010220011020,
1122112212212212,
1222121212221212,
2211221122112211,
1222112212212211,
2111221121121121,
1221221121121122,
1102201102211220,
1122112212212211,
2211221121121121,
1222121212221212,
100100200200100200100200100200100200102010201020,
#GOGOEND
12,
22,
12,
22,
2112,
2112,
1,
#SCROLL 6
4,
#END

COURSE:Oni
LEVEL:4
STYLE:Double
SCOREINIT:3400
SCOREDIFF:0
#START P1
300000000000000000000000000000000000000000000000,
000000000000000000000000000000000000000000000000,
000000000000000000000000000000000000000000000000,
000000000000000000000000000000000000000000000000,
300000000000200000000000000000000000100000000000,
000000000000200000000000000000000000100000000000,
200000000000100000000000000000000000200000000000,
000000000000100000000000000000200000200000000000,
100000000000100000000000100000000000000000200000,
100000000000000000000000100000000000100000000000,
100000000000200000100000200000000000100000200000,
#MEASURE 6/4
100000000000000000000000500000000000000000000008
000000000000000000000000,
#GOGOSTART
#MEASURE 4/4
000000000000200000000000000000000000200000000000,
000000000000000000000000000000000000000000000000,
100000000000000000000000100000000000000000100000,
000000000000000000000000000000000000000000000000,
000000000000200000000000000000000000200000000000,
000000000000000000000000000000100000000000100000,
000000000000200000000000000000000000200000000000,
000000200000000000000000000000000000000000000000,
#GOGOEND
300000000000000000000000000000000000000000000000,
100000000000000000000000000000000000000000000000,
100000000000000000000000000000000000000000000000,
100000000000000000000000000000000000100000100000,
100000000000200000000000000000000000200000000000,
000000000000200000000000000000000000200000000000,
000000000000200000000000000000000000200000000000,
000000000000200000000000200000000000200000000000,
300000000000400000000000000000000000200000000000,
200000000000300000000000000000200000000000200000,
000000000000300000000000000000000000200000000000,
100000000000300000000000000000000000300000000000,
400000000000300000000000000000100000000000200000,
000000000000300000000000000000000000200000000000,
100000000000300000000000000000000000200000200000,
000000000000300000000000000000000000300000000000,
100000200000200000100000200000200000100000200000,
100000200000100000200000200000200000100000200000,
100000000000000000000000200000000000000000000000,
100000000000000000000000200000100000000000000000,
100000200000200000100000200000200000100000000000,
100000000000000000000000200000000000100000000000,
100000000000200000200000100000100000100000000000,
100000000000200000200000100000100000100000000000,
100000000000100000000000000000200000000000200000,
200000100000200000000000100000000000100000000000,
100000200000100000200000100000200000200000200000,
100000200000100000200000100000000000100000000000,
300000000000000000000000000000000000000000000000,
#MEASURE 6/4
000000000000000000000000000000000000000000000000
000000000000000000000000,
#MEASURE 4/4
000000000000000000000000000000000000000000000000,
000000000000000000000000000000000000000000000000,
000000000000000000000000000000000000000000000000,
000000000000000000000000000000000000000000000000,
300000000000000000000000000000000000000000000000,
300000000000000000000000300000000000000000000000,
000000300000000000300000000000300000000000300000,
000300000300000300000300000300000300000300000300,
#MEASURE 6/4
000000000000000000000000000000000000000000000000
000000000000000000000000,
#GOGOSTART
#MEASURE 4/4
100000000000000000200000000000100000200000100000,
100000000000000000200000000000100000200000100000,
200000000000200000000000100000100000100000000000,
200000000000200000000000100000100000100000000000,
100000100000100000100000000000000000000000000000,
100000000000200000000000100000000000100000100000,
100000000000200000100000000000100000000000200000,
200000000000000000000000200000100000100000000000,
300000000000000000000000100000000000100000000000,
100000000000100000000000100000000000000000000000,
100000000000100000000000100000000000100000000000,
500000000000000000000000000000000008000000000000,
100000200000200000100000200000200000100000200000,
200000100000100000200000100000100000200000000000,
200000200000100000100000200000200000100000100000,
200000100000100000200000100000200000100000200000,
000000200000000000000000200000000000000000200000,
100000000000100000100000000000100000100000000000,
000000200000200000000000200000200000000000200000,
100000000000000000100000000000000000100000000000,
200000000000100000000000200000200000100000100000,
100000000000200000000000100000100000200000200000,
100000100000200000000000200000200000100000000000,
100000200000100000200000100000200000100000000000,
#GOGOEND
100000000000000000000000200000000000000000000000,
200000000000000000000000200000000000000000000000,
100000000000000000000000200000000000000000000000,
200000000000000000000000200000000000000000000000,
100000000000000000000000000000000000000000000000,
000000000000200000000000200000000000200000000000,
100000000000000000000000000000000000000000000000,
300000000000000000000000000000000000000000000000,
#END
#START P2
400000000000000000000000000000000000000000000000,
000000000000000000000000000000000000000000000000,
000000000000000000000000000000000000000000000000,
000000000000000000000000000000000000000000000000,
400000000000100000000000000000000000200000000000,
000000000000100000000000000000000000200000000000,
100000000000200000000000000000000000100000000000,
000000000000200000000000000000200000200000000000,
100000000000000000000000100000000000100000000000,
100000000000100000000000100000000000000000200000,
100000000000100000200000100000000000200000100000,
#MEASURE 6/4
200000000000000000000000500000000000000000000008
000000000000000000000000,
#GOGOSTART
#MEASURE 4/4
100000000000000000000000100000000000000000100000,
000000000000000000000000000000000000000000000000,
000000000000200000000000000000000000200000000000,
000000000000000000000000000000000000000000000000,
100000000000000000000000100000000000000000100000,
000000000000000000000000000000000000100000000000,
100000000000000000000000100000000000000000100000,
000000000000000000100000000000000000000000000000,
#GOGOEND
000000000000200000000000000000200000200000000000,
000000000000200000000000000000200000200000000000,
000000000000200000000000000000200000200000000000,
000000000000200000000000000000200000200000000000,
100000000000000000000000000000100000000000000000,
100000000000000000000000000000100000000000000000,
100000000000000000000000000000100000000000000000,
100000000000000000000000000000100000000000000000,
400000000000300000000000000000100000000000200000,
000000000000300000000000000000000000200000000000,
100000000000300000000000000000000000200000200000,
000000000000300000000000200000200000400000000000,
300000000000400000000000000000000000200000000000,
200000000000300000000000000000200000000000200000,
000000000000300000000000000000200000000000000000,
100000000000300000000000200000200000200000200000,
100000000000000000000000200000000000000000000000,
100000000000000000000000200000000000000000000000,
100000200000200000100000200000200000100000200000,
100000200000100000200000200000100000000000000000,
100000000000000000000000200000000000100000000000,
100000200000200000100000200000200000100000000000,
100000000000200000000000200000000000200000000000,
100000000000200000000000200000000000200000000000,
200000100000200000000000100000000000100000000000,
100000000000100000000000000000200000000000200000,
100000200000100000200000100000000000100000000000,
100000200000100000200000100000200000200000200000,
300000000000000000000000000000000000000000000000,
#MEASURE 6/4
000000000000000000000000000000000000000000000000
000000000000000000000000,
#MEASURE 4/4
000000000000000000000000000000000000000000000000,
000000000000000000000000000000000000000000000000,
000000000000000000000000000000000000000000000000,
300000000000000000000000000000000000000000000000,
000000000000000000000000000000000000000000000000,
300000000000300000000000300000000000300000000000,
300000000000300000000000300000000000300000000000,
300000300000300000300000300000300000300000300000,
#MEASURE 6/4
300000000000000000000000000000000000000000000000
000000000000000000000000,
#GOGOSTART
#MEASURE 4/4
100000100000100000100000000000000000000000000000,
100000100000100000100000000000000000000000000000,
100000100000100000100000200000000000000000000000,
100000100000100000100000200000000000000000000000,
100000000000000000200000000000100000200000100000,
100000000000000000200000000000000000200000100000,
100000000000100000200000000000200000000000100000,
100000000000000000000000100000000000200000100000,
100000200000200000100000200000200000100000200000,
200000100000100000200000100000100000200000000000,
200000200000100000100000200000200000100000100000,
200000100000100000200000100000200000100000200000,
100000000000100000000000100000000000100000000000,
100000000000100000000000100000000000100000000000,
100000000000100000000000100000000000100000000000,
500000000000000000000000000000000008000000000000,
100000000000100000100000000000100000100000000000,
000000200000000000000000200000000000000000200000,
100000000000000000100000000000000000100000000000,
000000200000200000000000200000200000000000200000,
100000000000200000000000100000100000200000200000,
200000000000100000000000200000200000100000100000,
200000200000100000000000100000100000200000000000,
200000100000200000100000200000100000200000000000,
#GOGOEND
100000000000000000000000000000000000000000000000,
000000000000000000000000000000000000000000000000,
100000000000000000000000000000000000000000000000,
000000000000000000000000000000000000000000000000,
100000000000100000000000100000000000100000000000,
200000000000000000000000000000000000000000000000,
100000000000000000000000000000000000000000000000,
300000000000000000000000000000000000000000000000,
#END
STYLE:Single
BALLOON:4,9
SCOREINIT:470
SCOREDIFF:130
#START
3,
,
,
,
3202,
0202,
00200220,
00200220,
10101012,
10101012,
10121012,
#MEASURE 6/4
158,
#MEASURE 4/4
#GOGOSTART
10201021,
,
10201021,
,
10201021,
00000111,
10201021,
02020000,
#GOGOEND
30200220,
10200220,
10200220,
1222,
10200120,
10200120,
10200120,
10202120,
30400122,
20300222,
10300222,
10302230,
30400122,
20300222,
10300222,
10302230,
12212212,
12122212,
12212212,
12222100,
12212212,
12212212,
11221222,
11221222,
11221212,
11221212,
12121222,
12121222,
3,
#MEASURE 6/4
0,
#MEASURE 4/4
,
,
,
3,
3,
3333,
33333333,
33333333,
#MEASURE 6/4
3,
#MEASURE 4/4
#GOGOSTART
11120121,
11120121,
11121112,
11121212,
11121120,
10101021,
10210201,
20002121,
12212212,
21121121,
22112211,
21121212,
12212212,
21121121,
22112211,
21121212,
12112112,
12112112,
12112112,
12112112,
11211212,
12212212,
12121122,
12121122,
#GOGOEND
12,
22,
12,
22,
1221,
2212,
2,
3,
#END

COURSE:2
LEVEL:3
STYLE:Single
BALLOON:100
SCOREINIT:590
SCOREDIFF:150
#START
3,
,
,
,
3300,
1,
11,
1,
31,
11,
10011000,
#MEASURE 6/4
115080,
#MEASURE 4/4
#GOGOSTART
10201022,
,
10201022,
,
10201022,
00000111,
10201022,
02020000,
#GOGOEND
34,
34,
34,
3044,
34,
34,
34,
3434,
3202,
0202,
0202,
0203,
3202,
0202,
0202,
00002222,
10101111,
20202222,
10101111,
20202222,
1212,
10201120,
10201120,
1212,
1122,
1122,
1212,
1212,
3900,
#MEASURE 6/4
0,
#MEASURE 4/4
,
,
,
,
,
,
9,
,
#MEASURE 6/4
8,
#MEASURE 4/4
#GOGOSTART
10110020,
10110020,
10101110,
10101110,
10110020,
10101011,
10110201,
10000000000000005000000008000000,
30200120,
00200120,
00200120,
10201120,
00200120,
00200120,
00200120,
10201120,
11111111,
22222222,
11112222,
11221122,
11111111,
22222222,
11112222,
11221122,
#GOGOEND
12,
22,
12,
22,
1112,
2211,
1,
3,
,
,
#END
STYLE:Double
BALLOON:100
SCOREINIT:880
SCOREDIFF:280
#START P1
3,
,
,
,
3400,
1,
21,
2,
31,
11,
10012000,
#MEASURE 6/4
125080,
#MEASURE 4/4
#GOGOSTART
0202,
,
10001001,
,
0202,
00000101,
0202,
02000000,
#GOGOEND
3,
1,
1,
1001,
02,
02,
02,
0202,
3202,
0202,
0202,
0203,
4302,
0202,
0202,
,
2121,
2121,
2121,
2110,
11101020,
10201110,
10201110,
11111110,
2211,
2211,
2121,
2121,
3900,
#MEASURE 6/4
0,
#MEASURE 4/4
,
,
,
,
,
,
9,
,
#MEASURE 6/4
8,
#MEASURE 4/4
#GOGOSTART
10110020,
10110000,
10101110,
10102220,
10110020,
10201011,
10220102,
2,
30200120,
00200120,
00200120,
10201120,
00200120,
00200120,
00200120,
1120,
1111,
2222,
1122,
1122,
2121,
1212,
2121,
1212,
#GOGOEND
12,
22,
12,
22,
1,
0222,
1,
3,
,
,
#END
BALLOON:100
SCOREINIT:880
SCOREDIFF:280
#START P2
4,
,
,
,
4300,
2,
12,
1,
31,
11,
10021000,
#MEASURE 6/4
215080,
#MEASURE 4/4
#GOGOSTART
10001001,
,
0202,
,
10001001,
0001,
10001001,
00010000,
#GOGOEND
02,
02,
02,
02,
1,
1,
1,
11,
3202,
0202,
0202,
0204,
3402,
0202,
0202,
00002222,
20102222,
20202222,
20202222,
2220,
1212,
1212,
1212,
1212,
1122,
1122,
1212,
1212,
0900,
#MEASURE 6/4
0,
#MEASURE 4/4
,
,
,
,
,
,
9,
,
#MEASURE 6/4
8,
#MEASURE 4/4
#GOGOSTART
10110000,
10110020,
10102220,
10101110,
10110020,
20102022,
20110201,
1012,
1112,
1112,
1112,
1112,
1112,
1112,
1112,
1121,
1212,
2121,
1212,
2121,
1212,
2121,
1212,
2121,
#GOGOEND
1,
,
1,
,
1111,
2,
1,
3,
,
,
#END

COURSE:1
LEVEL:3
BALLOON:70
SCOREINIT:610
SCOREDIFF:188
#START
3,
,
,
,
3300,
1,
11,
1,
31,
11,
11,
#MEASURE 6/4
115080,
#MEASURE 4/4
#GOGOSTART
10101022,
,
10101022,
,
10101022,
,
10101022,
02020000,
#GOGOEND
33,
33,
33,
3033,
44,
44,
44,
3344,
3002,
0202,
0202,
0203,
3002,
0202,
0202,
5000000000000800,
10101110,
20202220,
10101110,
20202220,
10001110,
10001110,
10002220,
10002220,
1122,
1122,
5000000000000800,
5000000000000800,
3900,
#MEASURE 6/4
0,
#MEASURE 4/4
,
,
,
,
,
,
9,
,
#MEASURE 6/4
8,
#MEASURE 4/4
#GOGOSTART
10101110,
10101011,
1210,
1210,
10101110,
10101011,
1210,
5000000000000800,
30200220,
10200220,
10200220,
1210,
10200220,
10200220,
10200220,
1210,
10101110,
20202220,
10102220,
5000000000000800,
10101110,
20202220,
10102220,
5000000000000800,
#GOGOEND
12,
22,
12,
22,
1112,
2211,
1,
3,
,
,
#END

COURSE:0
LEVEL:3
BALLOON:50
SCOREINIT:600
SCOREDIFF:228
#START
3,
,
,
,
3300,
1,
11,
1,
31,
11,
11,
#MEASURE 6/4
115080,
#MEASURE 4/4
#GOGOSTART
11,
1,
11,
1,
11,
1,
11,
1,
#GOGOEND
3,
33,
3,
33,
4,
44,
4,
3330,
3002,
0002,
0002,
0203,
3002,
0002,
0002,
5000000000000800,
1110,
2220,
1110,
2220,
1011,
1011,
1022,
1022,
1120,
1120,
5000000000000800,
5000000000000800,
3900,
#MEASURE 6/4
0,
#MEASURE 4/4
,
,
,
,
,
,
9,
,
#MEASURE 6/4
8,
#MEASURE 4/4
#GOGOSTART
1110,
1110,
11,
1110,
1110,
1011,
1,
5000000000000800,
31,
1110,
11,
2220,
11,
1110,
11,
2220,
1011,
1011,
1022,
5000000000000800,
1011,
1011,
1022,
5000000000000800,
#GOGOEND
12,
22,
12,
22,
1110,
2220,
1,
3,
,
,
#END
