//TJADB Project
TITLE:Everyday, Katyusha
TITLEJA:Everyday、カチューシャ
SUBTITLE:--AKB48/Moshidora
SUBTITLEJA:映画「もしドラ」主題歌
BPM:172
WAVE:Everyday, Katyusha.ogg
OFFSET:-1.501
DEMOSTART:90.454

COURSE:Oni
LEVEL:6
STYLE:Double
BALLOON:4,7,16
SCOREINIT:410
SCOREDIFF:90
#START P1
#GOGOSTART
1110201110102011,
1010201120102000,
1110201110102011,
1010201120102000,
1110201110102011,
1010201120102000,
1110111050000000,
000000000000000000000000000000000008000000000000,
1110201110102011,
1010201120102000,
1110201110102011,
1010201120102000,
1110201110102011,
1010201120102000,
1110111070000080,
03033033,
#GOGOEND
30201120,
10220220,
10201120,
10220220,
1110100022202000,
1110101022202020,
1110222011102220,
1,
10201120,
10220220,
10201120,
10220220,
1110100022202000,
1110100022202000,
1110101022202020,
1110222011102220,
10201120,
10210120,
10201120,
10210120,
1110100022202000,
1110101022202020,
1110222011102220,
1,
10201120,
1444,
10201120,
1444,
1110100022202000,
1110100022202000,
1110101022202020,
1110222011102220,
10102001,
1121,
11012001,
11012000,
10102001,
1121,
11012001,
11012000,
10102001,
1121,
11012007,
08,
3344,
3434,
7,
08,
#GOGOSTART
1110201110102011,
1010201120102000,
1110201110102011,
1010201120102000,
1110101022202020,
1110222011102220,
500000000000000000000000000000000000000000000008,
0000000000001110,
2000111020001110,
2011202020002220,
1000222010002220,
1022101010003000,
3404,
3434,
6,
000000000000000000000008000000000000000000000000,
1110201110102011,
1010201120102000,
1110201110102011,
1010201120102000,
1110101022202020,
1110222011102220,
500000000000000000000000000000000000000000000008,
0000000000002220,
1000222010002220,
1022101010001110,
2000111020001110,
2011202020003000,
3404,
3434,
6,
000000000000000000000008000000000000000000000000,
#GOGOEND
3344,
30440000,
40403033,
,
3344,
30440000,
40403033,
0004,
#END
#START P2
#GOGOSTART
1110201110102011,
1010201120102000,
1110201110102011,
1010201120102000,
1110201110102011,
1010201120102000,
1110111050000000,
000000000000000000000000000000000008000000000000,
1110201110102011,
1010201120102000,
1110201110102011,
1010201120102000,
1110201110102011,
1010201120102000,
1110111070000080,
03033033,
#GOGOEND
30201120,
10220220,
10201120,
10220220,
1110100022202000,
1110101022202020,
1110222011102220,
1,
10201120,
10220220,
10201120,
10220220,
1110100022202000,
1110100022202000,
1110101022202020,
1110222011102220,
10201120,
10210120,
10201120,
10210120,
1110100022202000,
1110101022202020,
1110222011102220,
1,
10201120,
1444,
10201120,
1444,
1110100022202000,
1110100022202000,
1110101022202020,
1110222011102220,
10102001,
1121,
11012001,
11012000,
10102001,
1121,
11012001,
11012000,
10102001,
1121,
11012007,
08,
3344,
3434,
7,
08,
#GOGOSTART
1110201110102011,
1010201120102000,
1110201110102011,
1010201120102000,
1110101022202020,
1110222011102220,
500000000000000000000000000000000000000000000008,
1022101010003000,
2000111020001110,
2011202020002220,
1000222010002220,
0000000000001110,
3404,
3434,
6,
000000000000000000000008000000000000000000000000,
1110201110102011,
1010201120102000,
1110201110102011,
1010201120102000,
1110101022202020,
1110222011102220,
500000000000000000000000000000000000000000000008,
2011202020003000,
1000222010002220,
1022101010001110,
2000111020001110,
0000000000002220,
3404,
3434,
6,
000000000000000000000008000000000000000000000000,
#GOGOEND
3344,
30440000,
40403033,
,
3344,
30440000,
40403033,
0004,
#END

COURSE:Hard
LEVEL:4
BALLOON:5,14
SCOREINIT:450
SCOREDIFF:110
#START
#GOGOSTART
10101110,
1122,
10101110,
1122,
10101110,
1122,
15,
000000000000000000000008000000000000000000000000,
10101110,
11102020,
10101110,
11102020,
10101110,
11102020,
15,
000000000000000000000008000000000000000000000000,//16
#GOGOEND
1111,
10220220,
1111,
10220220,
11102020,
11102020,
1212,
1,
1111,
10220220,
1111,
10220220,
11102020,
11102020,
3434,
3,
10201120,
1222,
10201120,
1222,
11102020,
11102020,
1212,
1,
10201120,
1222,
10201120,
1222,
11102020,
11102020,
3434,
3,
12,
10102001,
1120,
1120,
12,
10102001,
1120,
1120,
12,
10102001,
10102007,
08,
3344,
3434,
7,
08,//64
#GOGOSTART
10201120,
10101110,
10201120,
10101110,
11201020,
11201020,
500000000000000000000000000000000000000000000008,
00000011,
10101011,
10101022,
20202022,
2223,
3003,
3033,
6,
000000000000000000000008000000000000000000000000,
10201120,
10101110,
10201120,
10101110,
11201020,
11201020,
500000000000000000000000000000000000000000000008,
0002,
20222020,
20222010,
10111010,
10111030,
3003,
3033,
6,
000000000000000000000008000000000000000000000000,
3344,
30040000,
4433,
,
3344,
30040000,
4433,
0004,//104
#GOGOEND
,
,
,
,
,
#END

COURSE:Normal
LEVEL:2
BALLOON:12
#START
#GOGOSTART
11,
0011,
11,
0011,
11,
0011,
15,
000000000000000000000008000000000000000000000000,
12,
0011,
12,
0011,
12,
0011,
15,
000000000000000000000008000000000000000000000000,//16
#GOGOEND
1110,
1,
1110,
1,
1110,
2220,
1111,
1,
1110,
2,
1110,
2,
1110,
2220,
1111,
1,
1110,
12,
1110,
12,
1110,
2220,
1111,
1,
1110,
22,
1110,
22,
1110,
2220,
1111,
1,
12,
1001,
1,
,
12,
1001,
1,
,
12,
1001,
1,
,
11,
1110,
7,
08,//64
#GOGOSTART
1110,
11101000,
1110,
11101000,
12,
1120,
500000000000000000000000000000000000000000000008,
,
1110,
11101000,
2220,
22202000,
3,
33,
6,
000000000000000000000008000000000000000000000000,
1110,
11101000,
1110,
11101000,
12,
1120,
500000000000000000000000000000000000000000000008,
,
2220,
22202000,
1110,
11101000,
3,
33,
6,
000000000000000000000008000000000000000000000000,
33,
3,
3033,
,
33,
3,
3033,
0004,//104
#GOGOEND
,
,
,
,
,
#END

COURSE:Easy
LEVEL:3
BALLOON:9
#START
#GOGOSTART
11,
,
11,
,
11,
,
15,
000000000000000000000008000000000000000000000000,
11,
,
11,
,
11,
,
15,
000000000000000000000008000000000000000000000000,//16
#GOGOEND
11,
1,
11,
1,
11,
11,
1110,
3,
11,
2,
11,
2,
11,
11,
1110,
3,
11,
1,
11,
1,
11,
11,
1110,
3,
11,
2,
11,
2,
11,
11,
1110,
3,
1,
22,
2,
,
1,
22,
2,
,
1,
22,
2,
,
11,
1110,
7,
08,//64
#GOGOSTART
1110,
11,
1110,
1,
1110,
1110,
500000000000000000000000000000000000000000000008,
,
11,
1110,
22,
2220,
3,
33,
6,
000000000000000000000008000000000000000000000000,
1110,
11,
1110,
1,
1110,
1110,
500000000000000000000000000000000000000000000008,
,
11,
1110,
22,
2220,
3,
33,
6,
000000000000000000000008000000000000000000000000,
33,
3,
3033,
,
33,
3,
3033,
0004,//104
#GOGOEND
,
,
,
,
,
#END
