//TJADB Project
TITLE:RIDGE RACER STEPS -GMT Remix-
TITLEJA:RIDGE RACER STEPS -GMT remix-
SUBTITLE:--Shinji Hosoe (Sampling Masters)/RIDGE RACER
SUBTITLEJA:Yuji Masubuchi(BNSI)「RIDGE RACER」
BPM:240
WAVE:RIDGE RACER STEPS -GMT Remix-.ogg
OFFSET:-2.251
DEMOSTART:3.000

COURSE:Oni
LEVEL:9
BALLOON:4,14
SCOREINIT:600
SCOREDIFF:153
#START
#SCROLL 0.65
#MEASURE 3/4
3,
102002200,
102002200,
102002200,
102002201,
102002200,
102002200,
102002200,
201002122,
102002200,
102002200,
102002200,
102002201,
102002200,
102200400,
201002111,
200200222,
100100102,
212,
000100102,
200102200,
100100102,
212,
022,
102200200,
100100102,
212,
000100102,
200102200,
100100102,
212,
000700080,
3,
200002201,
112,
000202201,
100100222,
100001102,
212,
000101102,
112112112,
100002201,
100100102,
202002002,
101001001,
100200102,
200102202,
002001101,
222202200,
110,
201,
1,
2,
110,
201,
1,
2,
110,
201,
211,
201,
100100002,
100002002,
211,
300002200,
112,
021,
202,
121,
112,
021,
211,
200201100,
300300002,
001001200,
121,
121,
7,
000000000800000030,
,
500000000000000000000008000000000000,//81
#GOGOSTART
100100202,
101001102,
200200101,
202002201,
102001201,
102001201,
102001201,
111102100,
300003000,
6,
,
000000000000000000000008000000000000,
100200101,
000200101,
201002001,
200102000,
003003000,//98
#GOGOEND
,
0111,
2222,//101
#GOGOSTART
102002200,
102002201,
102002201,
211211200,
101200200,
101200200,
200201002,
002201002,
102201002,
122201002,
111202222,
222221111,
100200202,
000100101,
000200202,
000100101,
000200202,
000100101,
000200101,
201002111,
000200202,
200100101,
100200202,
211,
444,
101002101,
222000000,
3,
100102100,
200102100,
101001102,
200102111,
100102100,
200102101,
001102102,
001102111,
102201101,
102201101,
122201102,
122221111,
13,
33,
5,
000000000000000008000000000000000000,//145
#GOGOEND
3,
,
,
,
002002200,
2,
002002200,
2,
002000200,
2,
002000200,
2,
111,
333,
4,
#END

COURSE:Hard
LEVEL:7
BALLOON:8,8,12,8,8,14,30
SCOREINIT:770
SCOREDIFF:198
#START
#SCROLL 0.65
#MEASURE 3/4
3,
122,
122,
122,
211,
122,
122,
122,
201000100,
122,
122,
122,
211,
122,
122,
200002200,
222,
111,
022,
011,
210,
111,
022,
022,
3,
111,
022,
011,
210,
111,
022,
010,
3,
200002001,
110,
011,
220,
100001002,
220,
022,
111,
200002001,
110,
101002200,
101002200,
100001002,
220,
222,
3,
110,
2,
7,
08,
110,
2,
7,
08,
110,
2,
121,
211,
7,
,
8,
,
112,
021,
7,
08,
112,
021,
7,
08,
330,
,
121,
121,
7,
,
8,
,//81
#GOGOSTART
112,
101002200,
221,
202001100,
112,
101002200,
221,
202001100,
6,
,
,
000000000000000000000008000000000000,
022,
022,
100002000,
100002000,
003003000,//98
#GOGOEND
,
0222,
2222,//101
#GOGOSTART
102000200,
102000200,
102000200,
222,
111,
222,
100101007,
,
,
,
,
08,
022,
011,
022,
011,
022,
011,
022,
3,
022,
211,
122,
211,
122,
211,
222000000,
3,
111,
211,
011,
200101100,
111,
211,
000100102,
011,
122,
101100100,
122,
101100100,
11,
33,
4,
,//145
#GOGOEND
3,
,
,
,
022,
022,
022,
2,
022,
022,
022,
2,
111,
111,
3,
#END

COURSE:Normal
LEVEL:6
BALLOON:6,6,8,6,6,8,20
SCOREINIT:920
SCOREDIFF:260
#START
#SCROLL 0.5
#MEASURE 3/4
,
111,
1,
111,
1,
111,
1,
111,
2,
111,
1,
111,
1,
111,
1,
202,
2,
111,
,
011,
2,
111,
,
022,
2,
111,
,
011,
2,
111,
,
022,
1,
2,
2,
222,
2,
1,
1,
111,
1,
2,
2,
222,
2,
1,
1,
110,
3,
110,
2,
7,
08,
110,
2,
7,
08,
110,
2,
111,
1,
7,
,
8,
,
110,
2,
7,
08,
110,
2,
7,
08,
330,
,
222,
222,
7,
,
8,
,//81
#GOGOSTART
110,
110,
110,
110,
220,
220,
220,
220,
6,
,
,
,
,
000000000000000000000000000000000008,
,
,
001001000,//98
#GOGOEND
,
3,
,//101
#GOGOSTART
110,
110,
110,
220,
110,
220,
100100007,
,
,
,
,
08,
022,
022,
022,
022,
022,
022,
022,
1,
022,
022,
022,
022,
022,
022,
1,
,
111,
2,
111,
2,
111,
2,
111,
111,
110,
220,
110,
220,
11,
11,
1,
,//145
#GOGOEND
3,
,
,
,
2,
2,
2,
,
2,
2,
2,
,
111,
111,
1,
#END

COURSE:Easy
LEVEL:4
BALLOON:8,8,16
SCOREINIT:670
SCOREDIFF:210
#START
#SCROLL 0.5
#MEASURE 3/4
,
1,
1,
110,
1,
2,
2,
220,
2,
1,
1,
110,
1,
2,
2,
222,
2,
111,
,
011,
1,
111,
,
022,
2,
111,
,
011,
1,
111,
,
022,
2,
1,
1,
111,
1,
1,
1,
111,
1,
1,
1,
111,
1,
1,
1,
3,
,
110,
,
2,
,
110,
,
2,
,
110,
,
222,
2,
7,
,
8,
,
110,
,
2,
,
110,
,
2,
,
110,
,
2,
2,
7,
,
8,
,//81
#GOGOSTART
1,
1,
110,
1,
2,
2,
220,
2,
6,
,
,
,
,
,
,
000000000000000000000000000000000008,
,//98
#GOGOEND
,
3,
,//101
#GOGOSTART
110,
1,
1,
110,
1,
2,
100000007,
,
,
,
,
08,
1,
2,
1,
111,
1,
2,
1,
,
1,
2,
1,
111,
1,
2,
1,
,
110,
1,
110,
1,
110,
1,
111,
1,
220,
2,
220,
2,
11,
11,
1,
,//145
#GOGOEND
3,
,
,
,
2,
2,
2,
,
2,
2,
2,
,
3,
3,
3,
#END
